<?xml version="1.0" encoding="UTF-8"?>
<svg xmlns="http://www.w3.org/2000/svg" xmlns:xlink="http://www.w3.org/1999/xlink" version="1.2" >
<font id="PFRegalFinessePro-Medium">
<font-face  font-family="PF Regal Finesse Pro" units-per-em="1000" ascent="750" descent="-250" font-style="normal" font-weight="500" font-stretch="normal" cap-height="674" x-height="436" underline-position="-80" underline-thickness="40" />
<missing-glyph  horiz-adv-x="441" d="M0 680 L440 680 L440 0 L0 0 L0 680 Z M43 652 Q50 641 63.5 618.5 Q77 596 94.5 568 Q112 540 131.5 509 Q151 478 168.5 450.5 Q186 423 199.5 400.5 Q213 378 220 367 L397 652 L43 652 Z M43 28 L396 28 L220 313 L43 28 Z M410 62 L410 618 L237 339 L410 62 Z M29 618 L29 62 L203 339 L29 618 Z " />
<glyph glyph-name="NULL" d="" />
<glyph glyph-name="nonmarkingreturn" unicode="&#xd;" horiz-adv-x="248" d="" />
<glyph glyph-name="space" unicode="&#x20;" horiz-adv-x="248" d="" />
<glyph glyph-name="dollar" unicode="&#x24;" horiz-adv-x="554" d="M244 -76 L239 -76 L239 -4 Q196 -1 162 9.5 Q128 20 104 36 Q80 52 67.5 73 Q55 94 55 118 Q55 147 72 162.5 Q89 178 109 178 Q145 178 162.5 153.5 Q180 129 180 94 Q180 77 175 55 Q170 33 159 16 Q177 9 198 6 Q219 3 239 1 L239 309 Q207 324 176 341.5 Q145 359 121 380.5 Q97 402 82.5 428.5 Q68 455 68 490 Q68 527 81 556 Q94 585 117 606 Q140 627 171.5 640 Q203 653 239 659 L239 731 L244 731 L244 -76 Z M304 731 L309 731 L309 662 Q346 659 377 649 Q408 639 430 624 Q452 609 464 589.5 Q476 570 476 547 Q476 519 460.5 505 Q445 491 425 491 Q390 491 374 515 Q358 539 358 571 Q358 588 361.5 608.5 Q365 629 372 644 Q358 649 343 652 Q328 655 309 657 L309 404 Q345 387 382 367 Q419 347 449 321 Q479 295 497.5 261.5 Q516 228 516 185 Q516 142 500 109 Q484 76 456.5 52.5 Q429 29 391 15 Q353 1 309 -3 L309 -76 L304 -76 L304 731 Z M420 131 Q420 176 387.5 212 Q355 248 309 272 L309 4 Q358 15 389 47.5 Q420 80 420 131 Z M166 543 Q166 514 186.5 487.5 Q207 461 239 443 L239 650 Q210 639 188 613.5 Q166 588 166 543 Z " />
<glyph glyph-name="ampersand" unicode="&#x26;" horiz-adv-x="807" d="M342 705 Q384 705 419 697.5 Q454 690 480 676.5 Q506 663 520.5 644 Q535 625 535 603 Q535 588 529.5 577.5 Q524 567 516 559.5 Q508 552 499 548.5 Q490 545 482 545 Q447 545 430.5 566.5 Q414 588 414 619 Q414 636 418.5 655 Q423 674 433 689 Q419 694 404 696.5 Q389 699 374 699 Q345 699 320 689.5 Q295 680 276.5 662.5 Q258 645 247 619.5 Q236 594 236 563 Q236 519 252.5 491 Q269 463 293.5 447.5 Q318 432 345 426 Q372 420 393 420 L393 415 Q351 412 314 396 Q277 380 249 350.5 Q221 321 204.5 279 Q188 237 188 183 Q188 142 199 103 Q210 64 235 33.5 Q260 3 300 -16 Q340 -35 397 -35 Q474 -35 531.5 -11 Q589 13 627 50.5 Q665 88 684 133 Q703 178 703 219 Q703 259 688 291.5 Q673 324 648.5 346.5 Q624 369 592.5 381 Q561 393 528 393 Q490 393 462.5 383 Q435 373 418 356.5 Q401 340 393 318.5 Q385 297 385 275 Q385 229 418.5 201 Q452 173 506 173 Q501 188 501 204 Q501 227 512.5 247.5 Q524 268 551 268 Q570 268 580.5 257 Q591 246 591 229 Q591 198 566 183.5 Q541 169 510 169 Q440 169 401.5 203.5 Q363 238 363 289 Q363 333 380.5 361.5 Q398 390 427 407.5 Q456 425 492.5 434 Q529 443 567.5 449 Q606 455 642.5 459.5 Q679 464 708 472 Q737 480 754.5 494 Q772 508 772 533 Q772 555 751.5 573.5 Q731 592 689 592 Q692 575 690.5 558 Q689 541 682.5 527.5 Q676 514 664.5 505 Q653 496 635 496 Q621 496 609 506 Q597 516 597 533 Q597 549 605.5 561 Q614 573 627 581 Q640 589 656.5 592.5 Q673 596 690 596 Q714 596 733 588.5 Q752 581 764.5 568.5 Q777 556 784 540 Q791 524 791 506 Q791 477 779 455.5 Q767 434 746 419.5 Q725 405 696.5 397.5 Q668 390 635 390 L622 390 Q645 375 661.5 354 Q678 333 688 310.5 Q698 288 702.5 265 Q707 242 707 221 Q707 175 686.5 128 Q666 81 625.5 43.5 Q585 6 524.5 -18 Q464 -42 384 -42 Q295 -42 231.5 -22 Q168 -2 127.5 31 Q87 64 68.5 106.5 Q50 149 50 194 Q50 231 65 268 Q80 305 113 336.5 Q146 368 199.5 389.5 Q253 411 330 416 Q330 417 329 418 Q263 421 220 434.5 Q177 448 151.5 467.5 Q126 487 115.5 510.5 Q105 534 105 557 Q105 591 122 618 Q139 645 170.5 664.5 Q202 684 245.5 694.5 Q289 705 342 705 Z " />
<glyph glyph-name="quotesingle" unicode="&#x27;" horiz-adv-x="200" d="M99 710 Q125 710 136 696 Q147 682 147 665 Q147 655 145 646.5 Q143 638 141 628 L102 441 L97 441 L57 632 Q55 640 54 649 Q53 658 53 666 Q53 680 63.5 695 Q74 710 99 710 Z " />
<glyph glyph-name="parenleft" unicode="&#x28;" horiz-adv-x="343" d="M58 260 Q58 320 73.5 385 Q89 450 119.5 513 Q150 576 195 633.5 Q240 691 300 736 L303 732 Q258 691 228.5 637 Q199 583 181.5 522 Q164 461 157 396 Q150 331 150 270 Q150 201 157 135.5 Q164 70 181.5 10.5 Q199 -49 228 -101 Q257 -153 302 -194 L299 -198 Q239 -156 194 -101.5 Q149 -47 118.5 13.5 Q88 74 73 137.5 Q58 201 58 260 Z " />
<glyph glyph-name="parenright" unicode="&#x29;" horiz-adv-x="343" d="M281 260 Q281 201 266 137.5 Q251 74 221 13.5 Q191 -47 145.5 -101.5 Q100 -156 40 -198 L37 -194 Q82 -153 111.5 -101 Q141 -49 158.5 10.5 Q176 70 183 135.5 Q190 201 190 270 Q190 331 182.5 396 Q175 461 157.5 522 Q140 583 110.5 637 Q81 691 36 732 L39 736 Q99 691 144.5 633.5 Q190 576 220 513 Q250 450 265.5 385 Q281 320 281 260 Z " />
<glyph glyph-name="asterisk" unicode="&#x2a;" horiz-adv-x="412" d="M210 571 L176 665 Q171 679 180.5 693.5 Q190 708 212 708 Q235 708 244.5 694 Q254 680 248 666 L215 571 L210 571 Z M193 550 L95 550 Q77 550 66 564 Q55 578 62 598 Q68 617 84.5 622.5 Q101 628 113 617 L194 554 L193 550 Z M202 534 L176 442 Q171 423 152.5 417.5 Q134 412 117 424 Q103 435 103.5 453.5 Q104 472 116 480 L198 537 L202 534 Z M228 536 L311 480 Q325 472 325 454.5 Q325 437 307 424 Q289 412 274 416 Q259 420 253 436 L225 533 L228 536 Z M233 557 L311 619 Q323 629 340.5 624 Q358 619 364 597 Q369 576 360.5 562 Q352 548 335 550 L234 553 L233 557 Z " />
<glyph glyph-name="plus" unicode="&#x2b;" horiz-adv-x="554" d="M76 304 L278 304 L278 502 L293 502 L293 304 L493 304 L493 289 L293 289 L293 86 L278 86 L278 289 L76 289 L76 304 Z " />
<glyph glyph-name="comma" unicode="&#x2c;" horiz-adv-x="239" d="M117 117 Q151 117 168.5 93.5 Q186 70 186 35 Q186 12 178 -16 Q170 -44 155.5 -71.5 Q141 -99 122 -124.5 Q103 -150 81 -169 L76 -163 Q95 -147 112 -126 Q129 -105 142 -82 Q155 -59 164 -35.5 Q173 -12 175 9 Q162 0 147.5 -3.5 Q133 -7 122 -7 Q93 -7 74.5 9.5 Q56 26 56 55 Q56 80 73 98.5 Q90 117 117 117 Z " />
<glyph glyph-name="hyphen" unicode="&#x2d;" horiz-adv-x="311" d="M32 235 L32 260 L279 260 L279 235 L32 235 Z " />
<glyph glyph-name="period" unicode="&#x2e;" horiz-adv-x="221" d="M48 54 Q48 81 66 99 Q84 117 110 117 Q136 117 154.5 99 Q173 81 173 54 Q173 28 154.5 10 Q136 -8 110 -8 Q84 -8 66 10 Q48 28 48 54 Z " />
<glyph glyph-name="slash" unicode="&#x2f;" horiz-adv-x="285" d="M11 -50 L1 -50 L271 724 L280 724 L11 -50 Z " />
<glyph glyph-name="zero" unicode="0" horiz-adv-x="554" d="M37 332 Q37 388 50 447.5 Q63 507 92 556.5 Q121 606 166.5 638 Q212 670 277 670 Q345 670 391 639 Q437 608 464.5 559 Q492 510 504 450 Q516 390 516 333 Q516 279 503.5 218.5 Q491 158 462.5 106.5 Q434 55 388.5 21.5 Q343 -12 277 -12 Q210 -12 164.5 20 Q119 52 90.5 101.5 Q62 151 49.5 212 Q37 273 37 332 Z M160 333 Q160 254 165.5 191 Q171 128 184.5 84 Q198 40 221 16.5 Q244 -7 278 -7 Q312 -7 335 16.5 Q358 40 371 83.5 Q384 127 389.5 190 Q395 253 395 332 Q395 415 389.5 477.5 Q384 540 370.5 581.5 Q357 623 334.5 644 Q312 665 277 665 Q243 665 220.5 641 Q198 617 184.5 573 Q171 529 165.5 468 Q160 407 160 333 Z " />
<glyph glyph-name="one" unicode="1" horiz-adv-x="554" d="M337 670 L337 78 Q337 56 345.5 42.5 Q354 29 367 21.5 Q380 14 395.5 11 Q411 8 424 7 Q437 6 445.5 5.5 Q454 5 454 2 L454 0 L104 0 L104 2 Q104 6 122.5 6 Q141 6 163.5 11 Q186 16 204.5 31.5 Q223 47 223 81 L223 600 Q176 580 109 564 Q109 565 108.5 567 Q108 569 108 570 Q173 586 228.5 609 Q284 632 332 670 L337 670 Z " />
<glyph glyph-name="two" unicode="2" horiz-adv-x="554" d="M319 85 Q359 85 388.5 88 Q418 91 441 103 Q464 115 481.5 139.5 Q499 164 516 207 Q521 221 524 221 L526 221 L474 -19 Q450 -16 414.5 -12.5 Q379 -9 325 -6 Q271 -3 195.5 -1.5 Q120 0 17 0 L15 3 Q51 53 89.5 94.5 Q128 136 165 173 Q202 210 235 245 Q268 280 293 318.5 Q318 357 332.5 401.5 Q347 446 347 501 Q347 533 339.5 562.5 Q332 592 316 614 Q300 636 276.5 649 Q253 662 220 662 Q198 662 170 654 Q142 646 114 625 Q137 611 148 587 Q159 563 159 543 Q159 517 143.5 497 Q128 477 99 477 Q75 477 62 493 Q49 509 49 530 Q49 546 59.5 570 Q70 594 94 616.5 Q118 639 156 654.5 Q194 670 248 670 Q309 670 351 655.5 Q393 641 419 617.5 Q445 594 456.5 564.5 Q468 535 468 505 Q468 460 448 421 Q428 382 395.5 347.5 Q363 313 322 280.5 Q281 248 239 216.5 Q197 185 157.5 152.5 Q118 120 89 85 L319 85 Z " />
<glyph glyph-name="three" unicode="3" horiz-adv-x="554" d="M145 354 Q207 361 245.5 379 Q284 397 305 421 Q326 445 333.5 474 Q341 503 341 533 Q341 563 332 587 Q323 611 307.5 628 Q292 645 271.5 654 Q251 663 227 663 Q205 663 183.5 658 Q162 653 147 645 Q162 630 169.5 610 Q177 590 177 570 Q177 546 163.5 524 Q150 502 118 502 Q94 502 80 516.5 Q66 531 66 555 Q66 572 76 592 Q86 612 108 629.5 Q130 647 166 658.5 Q202 670 254 670 Q317 670 358 655.5 Q399 641 423 619.5 Q447 598 456 573 Q465 548 465 527 Q465 500 451.5 472.5 Q438 445 410 422 Q382 399 338.5 383 Q295 367 234 363 Q234 362 235 361 Q286 361 333 351 Q380 341 416 319.5 Q452 298 474 264 Q496 230 496 182 Q496 138 477.5 102.5 Q459 67 426.5 41.5 Q394 16 349.5 2 Q305 -12 253 -12 Q199 -12 157.5 -1 Q116 10 88 29 Q60 48 45.5 74 Q31 100 31 131 Q31 173 62.5 200 Q94 227 138 235 L141 232 Q133 216 129.5 193 Q126 170 126 152 Q126 120 132 91.5 Q138 63 151.5 41 Q165 19 188 6 Q211 -7 246 -7 Q282 -7 306.5 8 Q331 23 346 48.5 Q361 74 367.5 106 Q374 138 374 173 Q374 264 327.5 308.5 Q281 353 203 353 Q189 353 175 351.5 Q161 350 147 348 L145 354 L145 354 Z " />
<glyph glyph-name="four" unicode="4" horiz-adv-x="554" d="M432 426 L432 192 L527 192 L527 188 L432 188 L432 76 Q432 43 448.5 29 Q465 15 485.5 10.5 Q506 6 522.5 6 Q539 6 539 2 L539 0 L210 0 L210 2 Q210 6 227 6 Q244 6 264.5 11 Q285 16 302 31 Q319 46 319 81 L319 188 L12 188 L12 192 Q93 308 165 427 Q237 546 292 658 L432 658 Q381 577 325 506 Q269 435 214 376 Q159 317 108.5 271 Q58 225 18 192 L319 192 L319 363 Q355 370 381.5 385 Q408 400 428 426 L432 426 Z " />
<glyph glyph-name="five" unicode="5" horiz-adv-x="554" d="M372 648 Q397 648 414.5 651 Q432 654 445.5 661.5 Q459 669 469.5 683 Q480 697 490 720 Q494 731 498 731 L500 731 Q489 686 480 640 Q471 594 460 549 Q435 552 398 554.5 Q361 557 317 558.5 Q273 560 226 561 Q179 562 135 562 L104 353 Q141 376 186 387 Q231 398 270 398 Q316 398 356.5 383.5 Q397 369 426.5 343 Q456 317 473 280.5 Q490 244 490 199 Q490 157 474 119 Q458 81 427 52 Q396 23 350.5 6 Q305 -11 247 -11 Q201 -11 161.5 -0.5 Q122 10 93.5 28.5 Q65 47 48.5 73 Q32 99 32 129 Q32 166 57.5 195.5 Q83 225 132 231 L135 226 Q128 211 124.5 186 Q121 161 121 144 Q121 73 148 33 Q175 -7 243 -7 Q284 -7 309 10 Q334 27 347.5 54.5 Q361 82 365.5 117 Q370 152 370 188 Q370 279 328 328.5 Q286 378 215 378 Q190 378 160.5 370.5 Q131 363 104 348 L100 350 L143 648 L372 648 Z " />
<glyph glyph-name="six" unicode="6" horiz-adv-x="554" d="M512 212 Q512 171 496.5 130.5 Q481 90 450.5 58.5 Q420 27 375.5 7.5 Q331 -12 274 -12 Q212 -12 167.5 7.5 Q123 27 95 60.5 Q67 94 54 137.5 Q41 181 41 229 Q41 310 73 380 Q105 450 159 506.5 Q213 563 284.5 604.5 Q356 646 436 670 Q436 669 436.5 668 Q437 667 437 666 Q363 642 311 601.5 Q259 561 226.5 505.5 Q194 450 179 381 Q164 312 164 231 Q164 179 168.5 135 Q173 91 186 59.5 Q199 28 221.5 10.5 Q244 -7 280 -7 Q314 -7 336 12 Q358 31 370 61.5 Q382 92 386.5 130.5 Q391 169 391 207 Q391 235 386 268 Q381 301 368 329.5 Q355 358 332 377 Q309 396 274 396 Q263 396 251.5 394 Q240 392 226 386 L224 390 Q251 402 274.5 405.5 Q298 409 320 409 Q362 409 397 394.5 Q432 380 457.5 353.5 Q483 327 497.5 291 Q512 255 512 212 Z " />
<glyph glyph-name="seven" unicode="7" horiz-adv-x="554" d="M524 655 Q486 580 453 508 Q420 436 388.5 358 Q357 280 325.5 192.5 Q294 105 260 0 L117 0 Q201 158 294.5 302.5 Q388 447 476 572 L265 572 Q225 572 196 569 Q167 566 144.5 554.5 Q122 543 104.5 520.5 Q87 498 71 459 Q68 452 66 447.5 Q64 443 61 443 L59 443 L117 674 Q161 669 210.5 666 Q260 663 312.5 661.5 Q365 660 418 659 Q471 658 522 658 L524 655 Z " />
<glyph glyph-name="eight" unicode="8" horiz-adv-x="554" d="M481 513 Q481 466 449 425 Q417 384 354 367 Q384 349 412.5 329 Q441 309 463 286 Q485 263 498.5 235 Q512 207 512 173 Q512 131 494.5 97 Q477 63 445.5 39 Q414 15 370.5 1.5 Q327 -12 275 -12 Q229 -12 188 -2 Q147 8 115.5 29 Q84 50 65.5 81.5 Q47 113 47 156 Q47 216 87.5 265.5 Q128 315 204 335 Q179 351 156.5 368.5 Q134 386 117 406 Q100 426 90 449 Q80 472 80 499 Q80 538 94.5 569.5 Q109 601 136 623.5 Q163 646 200 658 Q237 670 282 670 Q322 670 358 659.5 Q394 649 421.5 629 Q449 609 465 580 Q481 551 481 513 Z M410 114 Q410 154 391.5 184.5 Q373 215 344 240.5 Q315 266 279 288 Q243 310 209 332 Q186 317 172 295 Q158 273 150.5 248.5 Q143 224 141 199.5 Q139 175 139 156 Q139 124 147.5 94.5 Q156 65 174 42.5 Q192 20 220 6.5 Q248 -7 287 -7 Q318 -7 341.5 3 Q365 13 380 30 Q395 47 402.5 69 Q410 91 410 114 Z M167 552 Q167 521 183 495.5 Q199 470 224.5 448 Q250 426 283 407 Q316 388 349 369 Q361 380 369.5 398 Q378 416 383 435.5 Q388 455 390 474.5 Q392 494 392 508 Q392 579 361 622 Q330 665 273 665 Q228 665 197.5 636.5 Q167 608 167 552 Z " />
<glyph glyph-name="nine" unicode="9" horiz-adv-x="554" d="M40 447 Q40 489 55.5 529 Q71 569 101.5 600.5 Q132 632 176.5 651 Q221 670 278 670 Q340 670 384 650.5 Q428 631 456.5 597.5 Q485 564 498 520 Q511 476 511 428 Q511 344 479 274 Q447 204 393 148 Q339 92 267.5 52 Q196 12 116 -12 Q116 -11 115.5 -10 Q115 -9 115 -8 Q188 16 240 56.5 Q292 97 324.5 152.5 Q357 208 372 277 Q387 346 387 426 Q387 478 382.5 522 Q378 566 365.5 598 Q353 630 330 647.5 Q307 665 271 665 Q237 665 215.5 646 Q194 627 182 597 Q170 567 165.5 529 Q161 491 161 452 Q161 423 167 391 Q173 359 187 331.5 Q201 304 224.5 286 Q248 268 284 268 Q293 268 303.5 269.5 Q314 271 325 276 L327 273 Q300 260 276.5 256.5 Q253 253 231 253 Q190 253 155 267 Q120 281 94.5 306.5 Q69 332 54.5 368 Q40 404 40 447 Z " />
<glyph glyph-name="colon" unicode="&#x3a;" horiz-adv-x="221" d="M48 54 Q48 81 66 99 Q84 117 110 117 Q136 117 154.5 99 Q173 81 173 54 Q173 28 154.5 10 Q136 -8 110 -8 Q84 -8 66 10 Q48 28 48 54 Z M48 342 Q48 368 66 386.5 Q84 405 110 405 Q136 405 154.5 386.5 Q173 368 173 342 Q173 316 154.5 298 Q136 280 110 280 Q84 280 66 298 Q48 316 48 342 Z " />
<glyph glyph-name="semicolon" unicode="&#x3b;" horiz-adv-x="221" d="M48 342 Q48 368 66 386.5 Q84 405 110 405 Q136 405 154.5 386.5 Q173 368 173 342 Q173 316 154.5 298 Q136 280 110 280 Q84 280 66 298 Q48 316 48 342 Z M106 117 Q140 117 157.5 93.5 Q175 70 175 35 Q175 12 167 -16 Q159 -44 144.5 -71.5 Q130 -99 110.5 -124.5 Q91 -150 69 -169 L65 -163 Q84 -147 101 -126 Q118 -105 131 -82 Q144 -59 152.5 -35.5 Q161 -12 163 9 Q151 0 136.5 -3.5 Q122 -7 111 -7 Q82 -7 63.5 9.5 Q45 26 45 55 Q45 80 62 98.5 Q79 117 106 117 Z " />
<glyph glyph-name="less" unicode="&#x3c;" horiz-adv-x="554" d="M503 73 Q483 82 448 99 Q413 116 369.5 136.5 Q326 157 279 179.5 Q232 202 189 223 Q146 244 110.5 260.5 Q75 277 55 286 L55 294 L503 505 L503 488 L84 290 L503 92 L503 73 L503 73 Z " />
<glyph glyph-name="equal" unicode="&#x3d;" horiz-adv-x="554" d="M78 198 L78 214 L492 214 L492 198 L78 198 Z M78 363 L78 379 L492 379 L492 363 L78 363 Z " />
<glyph glyph-name="greater" unicode="&#x3e;" horiz-adv-x="554" d="M503 286 Q483 277 448 260.5 Q413 244 369.5 223 Q326 202 279 179.5 Q232 157 189 136.5 Q146 116 110.5 99 Q75 82 55 73 L55 92 L474 290 L55 488 L55 505 L503 294 L503 286 L503 286 Z " />
<glyph glyph-name="question" unicode="&#x3f;" horiz-adv-x="524" d="M260 697 Q296 697 332 690.5 Q368 684 396.5 669.5 Q425 655 443 630.5 Q461 606 461 570 Q461 539 442 509.5 Q423 480 394 451.5 Q365 423 331.5 396 Q298 369 269 343 Q240 317 221 292.5 Q202 268 202 245 Q202 226 216 207 Q230 188 266 173 L264 169 Q195 186 153 223 Q111 260 111 308 Q111 333 128 357.5 Q145 382 170 406.5 Q195 431 225 456 Q255 481 280 506 Q305 531 322 556.5 Q339 582 339 609 Q339 632 330.5 648 Q322 664 308 673.5 Q294 683 275.5 687 Q257 691 236 691 Q219 691 200.5 688 Q182 685 168 680 Q176 667 180.5 647.5 Q185 628 185 611 Q185 579 168 554 Q151 529 116 529 Q96 529 81.5 542 Q67 555 67 583 Q67 634 118 665.5 Q169 697 260 697 Z M175 50 Q175 76 193 94.5 Q211 113 237 113 Q263 113 281.5 94.5 Q300 76 300 50 Q300 24 281.5 6.5 Q263 -11 237 -11 Q211 -11 193 6.5 Q175 24 175 50 Z " />
<glyph glyph-name="at" unicode="&#x40;" horiz-adv-x="973" d="M716 136 Q756 136 792 154 Q828 172 855.5 204.5 Q883 237 899 281 Q915 325 915 377 Q915 461 884.5 526 Q854 591 800 635.5 Q746 680 673.5 703.5 Q601 727 517 727 Q420 727 338 694.5 Q256 662 196 605 Q136 548 102.5 471 Q69 394 69 304 Q69 211 99.5 132 Q130 53 185 -4.5 Q240 -62 316.5 -94.5 Q393 -127 484 -127 Q510 -127 549.5 -124 Q589 -121 628 -109 Q628 -113 630 -117 Q589 -130 546.5 -133 Q504 -136 479 -136 Q389 -136 312 -102.5 Q235 -69 179 -10.5 Q123 48 91.5 128 Q60 208 60 301 Q60 392 94 471.5 Q128 551 188.5 609.5 Q249 668 333 701.5 Q417 735 517 735 Q603 735 677 711.5 Q751 688 806 642 Q861 596 892 529.5 Q923 463 923 378 Q923 323 906 276.5 Q889 230 858 196 Q827 162 785 142.5 Q743 123 693 123 Q671 123 649.5 126 Q628 129 610.5 137 Q593 145 581 158.5 Q569 172 565 192 Q533 155 495 142.5 Q457 130 420 130 Q378 130 346 153.5 Q314 177 314 224 Q314 263 332.5 289 Q351 315 380 330.5 Q409 346 445 352.5 Q481 359 516 359 Q541 359 564 356 L564 414 Q564 435 560 455 Q556 475 547 490 Q538 505 522 514 Q506 523 482 523 Q444 523 413 506 Q427 496 434.5 479 Q442 462 442 446 Q442 425 429 407.5 Q416 390 390 390 Q370 390 359 403 Q348 416 348 433 Q348 447 356 464 Q364 481 383 495.5 Q402 510 432 520 Q462 530 507 530 Q554 530 584 518 Q614 506 631 486.5 Q648 467 654.5 442.5 Q661 418 661 392 L661 207 Q661 172 672 154 Q683 136 716 136 Z M473 150 Q499 150 524 163.5 Q549 177 564 198 L564 352 Q555 354 546 354 Q537 354 529 354 Q473 352 443.5 321 Q414 290 414 236 Q414 196 429 173 Q444 150 473 150 Z " />
<glyph glyph-name="A" unicode="A" horiz-adv-x="752" d="M512 53 Q512 67 507.5 82.5 Q503 98 498 112 L458 222 L200 222 L168 132 Q162 115 158.5 99.5 Q155 84 155 70 Q155 42 172.5 29.5 Q190 17 211 12.5 Q232 8 248.5 7 Q265 6 263 0 L5 0 Q3 7 19.5 7 Q36 7 60.5 14.5 Q85 22 111 43 Q137 64 155 112 L322 570 Q329 590 329 606 Q329 633 311.5 645 Q294 657 273.5 661.5 Q253 666 235.5 666.5 Q218 667 218 672 L218 674 L424 674 L640 77 Q651 46 668.5 31.5 Q686 17 702.5 12 Q719 7 731 6.5 Q743 6 743 2 L743 0 L432 0 L432 2 Q432 5 444.5 6 Q457 7 472 10.5 Q487 14 499.5 23.5 Q512 33 512 53 Z M203 227 L456 227 L330 579 L203 227 Z " />
<glyph glyph-name="B" unicode="B" horiz-adv-x="716" d="M32 1 Q32 5 40.5 5.5 Q49 6 62 8 Q75 10 90.5 14.5 Q106 19 119 30.5 Q132 42 140.5 63 Q149 84 149 118 L149 577 Q149 617 131 635.5 Q113 654 91 660.5 Q69 667 51 667 Q33 667 33 672 L33 674 L387 674 Q459 674 507.5 660 Q556 646 584.5 624 Q613 602 625 573.5 Q637 545 637 517 Q637 487 621.5 461.5 Q606 436 578 416.5 Q550 397 510.5 385 Q471 373 423 371 L423 368 Q490 365 537.5 348 Q585 331 615 305.5 Q645 280 659 249 Q673 218 673 188 Q673 156 660 123 Q647 90 615.5 62.5 Q584 35 532 17.5 Q480 0 402 0 L32 0 L32 1 Z M278 121 Q278 98 280 77 Q282 56 291 40 Q300 24 318 14 Q336 4 368 4 L380 4 Q448 4 491 51.5 Q534 99 534 182 Q534 227 519 261.5 Q504 296 480 319 Q456 342 426 353.5 Q396 365 366 365 L278 365 L278 121 Z M278 370 L355 370 Q381 370 407 378.5 Q433 387 454 405 Q475 423 488 450.5 Q501 478 501 515 Q501 584 463.5 626.5 Q426 669 351 669 L278 669 L278 370 Z " />
<glyph glyph-name="C" unicode="C" horiz-adv-x="688" d="M387 -12 Q303 -12 239 13 Q175 38 131.5 83 Q88 128 66 190 Q44 252 44 325 Q44 398 67 463 Q90 528 134.5 577 Q179 626 243 654.5 Q307 683 388 683 Q431 683 466.5 676.5 Q502 670 530 667.5 Q558 665 580 673 Q602 681 618 711 L621 711 L635 450 L633 450 Q629 450 627 459.5 Q625 469 618 490 Q606 526 589 560 Q572 594 545.5 620 Q519 646 483 662 Q447 678 398 678 Q341 678 301 648.5 Q261 619 236 569.5 Q211 520 199.5 456 Q188 392 188 323 Q188 252 200.5 191.5 Q213 131 239.5 87 Q266 43 306 18.5 Q346 -6 400 -6 Q455 -6 494 9.5 Q533 25 561.5 54 Q590 83 609 124.5 Q628 166 642 219 Q650 245 652.5 259 Q655 273 660 273 L662 273 L645 -26 L642 -26 Q623 7 600 13 Q577 19 547 13.5 Q517 8 477.5 -2 Q438 -12 387 -12 Z " />
<glyph glyph-name="D" unicode="D" horiz-adv-x="808" d="M32 1 Q32 5 40.5 5.5 Q49 6 62 8 Q75 10 90.5 14.5 Q106 19 119 30.5 Q132 42 140.5 63 Q149 84 149 118 L149 577 Q149 617 131 635.5 Q113 654 91 660.5 Q69 667 51 667 Q33 667 33 672 L33 674 L352 674 Q437 674 511 653 Q585 632 640.5 590 Q696 548 728 484.5 Q760 421 760 337 Q760 307 753 270.5 Q746 234 729 196.5 Q712 159 683.5 123.5 Q655 88 612.5 60.5 Q570 33 511 16.5 Q452 0 375 0 L32 0 L32 1 Z M279 102 Q279 51 301.5 27.5 Q324 4 367 4 L382 4 Q434 4 477.5 21.5 Q521 39 552 78 Q583 117 600 178.5 Q617 240 617 329 Q617 408 603.5 471.5 Q590 535 558 578.5 Q526 622 472.5 645.5 Q419 669 339 669 L279 669 L279 102 Z " />
<glyph glyph-name="E" unicode="E" horiz-adv-x="699" d="M412 674 Q470 674 519.5 683.5 Q569 693 604 716 Q612 651 618.5 587.5 Q625 524 632 459 L630 459 Q627 459 625.5 462.5 Q624 466 622 472 Q605 520 585 557 Q565 594 537.5 619 Q510 644 474 656.5 Q438 669 389 669 L278 669 L278 356 L359 356 Q390 356 412.5 363.5 Q435 371 449.5 384.5 Q464 398 472.5 416 Q481 434 484 455 Q488 478 489 488 Q490 498 495 497 L495 203 Q490 201 488.5 211.5 Q487 222 484.5 238.5 Q482 255 476.5 274.5 Q471 294 458 311 Q445 328 422.5 339.5 Q400 351 364 351 L278 351 L278 98 Q278 53 299.5 28.5 Q321 4 371 4 L401 4 Q493 4 562 58 Q631 112 677 241 Q681 254 688 254 L633 -30 Q601 -16 552.5 -8 Q504 0 432 0 L32 0 L32 1 Q32 5 40.5 5.5 Q49 6 62 8 Q75 10 90.5 14.5 Q106 19 119 30.5 Q132 42 140.5 63 Q149 84 149 118 L149 577 Q149 617 131 635.5 Q113 654 91 660.5 Q69 667 51 667 Q33 667 33 672 L33 674 L412 674 L412 674 Z " />
<glyph glyph-name="F" unicode="F" horiz-adv-x="651" d="M151 577 Q151 617 133 635.5 Q115 654 93 660.5 Q71 667 53 667 Q35 667 35 672 L35 674 L416 674 Q478 674 527.5 683 Q577 692 611 716 Q619 651 625.5 587.5 Q632 524 639 459 L637 459 Q635 459 630 472 Q597 569 542 619 Q487 669 397 669 L280 669 L280 343 L375 343 Q407 343 429 350.5 Q451 358 465.5 371.5 Q480 385 488 403.5 Q496 422 499 443 Q502 464 503.5 474 Q505 484 510 484 L510 190 Q506 190 504.5 201 Q503 212 500 228.5 Q497 245 491 264 Q485 283 472 299.5 Q459 316 437 327 Q415 338 380 338 L280 338 L280 118 Q280 84 288.5 63 Q297 42 310.5 30.5 Q324 19 339 14.5 Q354 10 367.5 8 Q381 6 389.5 5.5 Q398 5 398 1 L398 0 L33 0 L33 1 Q33 5 41.5 5.5 Q50 6 63.5 8 Q77 10 92 14.5 Q107 19 120.5 30.5 Q134 42 142.5 63 Q151 84 151 118 L151 577 L151 577 Z " />
<glyph glyph-name="G" unicode="G" horiz-adv-x="767" d="M400 683 Q449 683 488 674.5 Q527 666 558 666 Q584 666 603.5 673.5 Q623 681 637 710 L640 710 L655 440 L653 440 Q650 440 648 449.5 Q646 459 638 482 Q627 516 610 551 Q593 586 567 614.5 Q541 643 503 660.5 Q465 678 411 678 Q352 678 310 650 Q268 622 241 574 Q214 526 201 462 Q188 398 188 325 Q188 251 198.5 189.5 Q209 128 233 84.5 Q257 41 297 17 Q337 -7 396 -7 Q426 -7 451 0.5 Q476 8 496 19.5 Q516 31 531.5 45.5 Q547 60 556 74 L556 241 Q556 283 538 301 Q520 319 498.5 325 Q477 331 460 331 Q443 331 445 337 L770 337 Q771 333 764.5 332 Q758 331 747.5 330 Q737 329 724.5 326 Q712 323 701 313.5 Q690 304 683 287 Q676 270 676 241 L676 0 L673 -2 Q652 20 633.5 28.5 Q615 37 596 37 Q574 37 553 29.5 Q532 22 508 13 Q484 4 455 -3.5 Q426 -11 389 -11 Q309 -11 245 14 Q181 39 136.5 83.5 Q92 128 68 190.5 Q44 253 44 328 Q44 401 68.5 465.5 Q93 530 139 578.5 Q185 627 251 655 Q317 683 400 683 Z " />
<glyph glyph-name="H" unicode="H" horiz-adv-x="868" d="M278 118 Q278 66 296 43.5 Q314 21 336 13.5 Q358 6 375 6.5 Q392 7 391 0 L32 0 Q31 4 39 5 Q47 6 60 7.5 Q73 9 89 13.5 Q105 18 118.5 29.5 Q132 41 141 62 Q150 83 150 118 L150 577 Q150 618 131.5 636.5 Q113 655 91 661 Q69 667 50.5 667 Q32 667 32 672 L32 674 L392 674 L392 672 Q392 669 383.5 668 Q375 667 362.5 665.5 Q350 664 335 660 Q320 656 307.5 646.5 Q295 637 286.5 620.5 Q278 604 278 577 L278 359 L589 359 L589 577 Q589 604 580.5 620.5 Q572 637 559.5 646.5 Q547 656 532 660 Q517 664 504.5 665.5 Q492 667 483.5 668 Q475 669 475 672 L475 674 L833 674 L833 672 Q833 667 815 667 Q797 667 775 660.5 Q753 654 735 636 Q717 618 717 577 L717 120 Q717 85 726 63.5 Q735 42 748.5 30 Q762 18 778 13.5 Q794 9 807 7.5 Q820 6 828 5 Q836 4 835 0 L475 0 Q473 6 490.5 6 Q508 6 530 14 Q552 22 570.5 46.5 Q589 71 589 126 L589 354 L278 354 L278 118 Z " />
<glyph glyph-name="I" unicode="I" horiz-adv-x="439" d="M284 118 Q284 84 292.5 63 Q301 42 314.5 30.5 Q328 19 343 14.5 Q358 10 371.5 8 Q385 6 393.5 5.5 Q402 5 402 1 L402 0 L37 0 L37 1 Q37 5 45.5 5.5 Q54 6 67.5 8 Q81 10 96 14.5 Q111 19 124.5 30.5 Q138 42 146.5 63 Q155 84 155 118 L155 577 Q155 617 136.5 635.5 Q118 654 96 660.5 Q74 667 55.5 667 Q37 667 37 672 L37 674 L402 674 L402 672 Q402 667 383.5 666.5 Q365 666 343 659.5 Q321 653 302.5 635 Q284 617 284 577 L284 118 Z " />
<glyph glyph-name="J" unicode="J" horiz-adv-x="386" d="M52 -197 Q79 -187 95 -172.5 Q111 -158 119 -135.5 Q127 -113 129.5 -79.5 Q132 -46 132 3 L132 577 Q132 619 113.5 637 Q95 655 72.5 661 Q50 667 31.5 667 Q13 667 13 672 L13 674 L379 674 L379 672 Q379 667 360.5 667 Q342 667 319.5 660.5 Q297 654 278.5 635.5 Q260 617 260 577 Q260 470 260.5 378.5 Q261 287 261 197 Q261 95 247 28 Q233 -39 200 -84 Q182 -108 159.5 -131.5 Q137 -155 110.5 -173.5 Q84 -192 54 -203 Q24 -214 -10 -214 Q-22 -214 -38 -210 Q-54 -206 -67.5 -198 Q-81 -190 -90.5 -176.5 Q-100 -163 -100 -143 Q-100 -113 -80.5 -95.5 Q-61 -78 -31 -78 Q-15 -78 0 -85 Q15 -92 26.5 -106.5 Q38 -121 45 -143.5 Q52 -166 52 -197 Z " />
<glyph glyph-name="K" unicode="K" horiz-adv-x="769" d="M146 577 Q146 617 128 635.5 Q110 654 88.5 660.5 Q67 667 49 667 Q31 667 31 672 L31 674 L388 674 L388 672 Q388 669 379.5 668 Q371 667 358.5 665.5 Q346 664 331 660 Q316 656 303.5 646.5 Q291 637 282.5 620.5 Q274 604 274 577 L274 343 L336 343 L516 541 Q540 568 550 587.5 Q560 607 560 621 Q560 641 547.5 650 Q535 659 520 662.5 Q505 666 492.5 666.5 Q480 667 480 672 L480 674 L753 674 Q754 665 737.5 664.5 Q721 664 691 656.5 Q661 649 620.5 627 Q580 605 533 553 L412 419 L633 96 Q661 54 687 36 Q713 18 732 12 Q751 6 762 6 Q773 6 772 0 L446 0 L446 2 Q446 6 457 6.5 Q468 7 481.5 9.5 Q495 12 506 19 Q517 26 517 42 Q517 57 499 84 L324 338 L274 338 L274 118 Q274 67 291 44.5 Q308 22 329 14.5 Q350 7 367 7 Q384 7 384 1 L384 0 L27 0 L27 1 Q27 5 35.5 5.5 Q44 6 57.5 8 Q71 10 86 14.5 Q101 19 114.5 30.5 Q128 42 136.5 63 Q145 84 145 118 L146 577 Z " />
<glyph glyph-name="L" unicode="L" horiz-adv-x="691" d="M398 672 Q398 667 379.5 666.5 Q361 666 338.5 659.5 Q316 653 297.5 635 Q279 617 279 577 L279 98 Q279 53 300.5 28.5 Q322 4 372 4 L394 4 Q443 4 484 17 Q525 30 559 58.5 Q593 87 620.5 132 Q648 177 671 242 Q676 256 680 256 L682 256 L627 -26 Q595 -12 548.5 -6 Q502 0 442 0 L32 0 L32 1 Q32 5 40.5 5.5 Q49 6 62 8 Q75 10 90.5 14.5 Q106 19 119 30.5 Q132 42 140.5 63 Q149 84 149 118 L149 577 Q149 617 131 635.5 Q113 654 91 660.5 Q69 667 51 667 Q33 667 33 672 L33 674 L398 674 L398 672 Z " />
<glyph glyph-name="M" unicode="M" horiz-adv-x="955" d="M154 581 Q154 607 145.5 623 Q137 639 124 648 Q111 657 96.5 660.5 Q82 664 69 665.5 Q56 667 47.5 667.5 Q39 668 39 672 L39 674 L257 674 Q314 563 372 454 Q430 345 488 234 L695 674 L922 674 L922 672 Q922 667 903.5 666.5 Q885 666 863 659.5 Q841 653 822.5 635 Q804 617 804 577 L804 118 Q804 84 812.5 63 Q821 42 834.5 30.5 Q848 19 863 14.5 Q878 10 891.5 8 Q905 6 913.5 5.5 Q922 5 922 1 L922 0 L567 0 L567 1 Q567 5 575.5 5.5 Q584 6 596 8 Q608 10 623 14.5 Q638 19 650 30.5 Q662 42 670.5 63 Q679 84 679 118 L679 627 L678 627 L491 229 L573 71 Q572 71 571.5 70.5 Q571 70 569 70 Q551 102 510 123.5 Q469 145 403 145 L160 602 L159 602 L159 136 Q159 98 168.5 74.5 Q178 51 192.5 37.5 Q207 24 224 18 Q241 12 255.5 9.5 Q270 7 279.5 6 Q289 5 289 1 L289 0 L22 0 L22 1 Q22 5 32 6 Q42 7 56.5 9.5 Q71 12 88 17.5 Q105 23 119.5 37 Q134 51 144 75.5 Q154 100 154 139 L154 581 Z " />
<glyph glyph-name="N" unicode="N" horiz-adv-x="810" d="M269 674 Q364 553 458 434 Q552 315 648 195 L648 535 Q648 574 638 598.5 Q628 623 613.5 637 Q599 651 582 656.5 Q565 662 550.5 664.5 Q536 667 526 668 Q516 669 516 673 L516 674 L783 674 L783 673 Q783 669 773.5 668 Q764 667 749.5 664.5 Q735 662 718 656 Q701 650 686.5 636.5 Q672 623 662.5 599.5 Q653 576 653 538 L653 -17 L651 -17 L161 603 L161 136 Q161 98 170.5 74.5 Q180 51 194.5 37.5 Q209 24 226 18 Q243 12 257.5 9.5 Q272 7 281.5 6 Q291 5 291 1 L291 0 L24 0 L24 1 Q24 5 34 6 Q44 7 58.5 9.5 Q73 12 90 17.5 Q107 23 121.5 37 Q136 51 146 75.5 Q156 100 156 139 L156 581 Q156 620 138 637 Q120 654 99 660 Q78 666 60 666.5 Q42 667 42 672 L42 674 L269 674 L269 674 Z " />
<glyph glyph-name="O" unicode="O" horiz-adv-x="793" d="M48 335 Q48 405 72 468 Q96 531 141 579 Q186 627 250 655.5 Q314 684 394 684 Q478 684 543.5 655.5 Q609 627 654 579 Q699 531 722 468.5 Q745 406 745 338 Q745 269 721 205.5 Q697 142 651.5 94 Q606 46 541 17 Q476 -12 394 -12 Q308 -12 243.5 16 Q179 44 135.5 92 Q92 140 70 203 Q48 266 48 335 Z M192 337 Q192 271 200 209 Q208 147 230.5 99 Q253 51 293.5 22 Q334 -7 398 -7 Q459 -7 498.5 20 Q538 47 561 93.5 Q584 140 592.5 201 Q601 262 601 331 Q601 400 592 463 Q583 526 560 574 Q537 622 497 650.5 Q457 679 394 679 Q335 679 296.5 649.5 Q258 620 234.5 572 Q211 524 201.5 462.5 Q192 401 192 337 Z " />
<glyph glyph-name="P" unicode="P" horiz-adv-x="663" d="M279 118 Q279 84 287.5 63 Q296 42 309.5 30.5 Q323 19 338 14.5 Q353 10 366.5 8 Q380 6 388.5 5.5 Q397 5 397 1 L397 0 L32 0 L32 1 Q32 5 40.5 5.5 Q49 6 62 8 Q75 10 90.5 14.5 Q106 19 119 30.5 Q132 42 140.5 63 Q149 84 149 118 L149 577 Q149 617 131 635.5 Q113 654 91 660.5 Q69 667 51 667 Q33 667 33 672 L33 674 L353 674 Q488 674 562.5 621.5 Q637 569 637 479 Q637 425 614.5 386.5 Q592 348 554.5 323.5 Q517 299 469.5 287.5 Q422 276 372 276 Q349 276 324.5 277.5 Q300 279 279 283 L279 118 Z M279 287 Q284 285 292 284.5 Q300 284 309 283 Q403 283 449.5 333.5 Q496 384 496 475 Q496 520 483 556 Q470 592 447 617 Q424 642 392.5 655.5 Q361 669 325 669 L279 669 L279 287 Z " />
<glyph glyph-name="Q" unicode="Q" horiz-adv-x="792" d="M394 683 Q478 683 543 654.5 Q608 626 653 578 Q698 530 721 467.5 Q744 405 744 337 Q744 267 719 204 Q694 141 648.5 93 Q603 45 538 17 Q473 -11 393 -11 Q413 -29 443.5 -36.5 Q474 -44 505 -44 Q522 -44 542 -41 Q592 -86 638.5 -117 Q685 -148 729 -148 Q746 -148 763.5 -141.5 Q781 -135 798 -119 L800 -121 Q765 -167 723 -189 Q681 -211 642 -211 Q605 -211 565.5 -192 Q526 -173 491 -143.5 Q456 -114 428 -78.5 Q400 -43 387 -11 Q303 -10 240 18.5 Q177 47 134 94.5 Q91 142 69.5 204 Q48 266 48 335 Q48 405 72 468 Q96 531 141 579 Q186 627 250 655 Q314 683 394 683 Z M394 679 Q335 679 296 649.5 Q257 620 234 572 Q211 524 201 462 Q191 400 191 336 Q191 270 199.5 208 Q208 146 230.5 98 Q253 50 293.5 21.5 Q334 -7 398 -7 Q459 -7 498.5 20 Q538 47 561 93.5 Q584 140 592.5 201 Q601 262 601 331 Q601 400 592 463 Q583 526 559.5 574 Q536 622 496 650.5 Q456 679 394 679 Z " />
<glyph glyph-name="R" unicode="R" horiz-adv-x="755" d="M336 674 Q403 674 456 663.5 Q509 653 546 631.5 Q583 610 603 576.5 Q623 543 623 498 Q623 461 602.5 428.5 Q582 396 542 372.5 Q502 349 443 336 Q384 323 308 326 Q346 288 390.5 278.5 Q435 269 482 271 L608 94 Q634 56 659 39 Q684 22 703 15 Q722 8 733.5 7 Q745 6 745 1 L745 0 L533 0 L303 326 L278 326 L278 118 Q278 84 287 63 Q296 42 309 30.5 Q322 19 337.5 14.5 Q353 10 366 8 Q379 6 388 5.5 Q397 5 397 1 L397 0 L32 0 L32 1 Q32 5 40.5 5.5 Q49 6 62 8 Q75 10 90.5 14.5 Q106 19 119 30.5 Q132 42 140.5 63 Q149 84 149 118 L149 577 Q149 617 131 635.5 Q113 654 91 660.5 Q69 667 51 667 Q33 667 33 672 L33 674 L336 674 Z M278 669 L278 331 L310 331 Q354 331 387 344 Q420 357 442 380 Q464 403 475 433.5 Q486 464 486 499 Q486 578 439.5 623.5 Q393 669 315 669 L278 669 Z " />
<glyph glyph-name="S" unicode="S" horiz-adv-x="591" d="M285 -12 Q252 -12 219 -5.5 Q186 1 157 3 Q128 5 103 -4.5 Q78 -14 62 -45 L59 -45 L44 265 L46 265 Q49 265 51 257.5 Q53 250 57 236 Q74 173 94 127.5 Q114 82 140 52.5 Q166 23 200.5 8.5 Q235 -6 282 -6 Q321 -6 349.5 4.5 Q378 15 396 33 Q414 51 423 74.5 Q432 98 432 124 Q432 161 416 189 Q400 217 374.5 239.5 Q349 262 315.5 280 Q282 298 247.5 315.5 Q213 333 180 351.5 Q147 370 121.5 393.5 Q96 417 80 447 Q64 477 64 517 Q64 560 81 591.5 Q98 623 128 643.5 Q158 664 198 674 Q238 684 283 684 Q312 684 341 678 Q370 672 396.5 670 Q423 668 444.5 676 Q466 684 480 713 L483 713 L498 451 L496 451 Q492 451 484 480 Q470 533 448 570.5 Q426 608 399.5 632 Q373 656 344 667 Q315 678 288 678 Q233 678 205.5 647.5 Q178 617 178 575 Q178 535 205 506.5 Q232 478 273 454 Q314 430 361.5 407 Q409 384 450 354 Q491 324 518 284 Q545 244 545 187 Q545 142 527.5 105 Q510 68 476.5 42 Q443 16 394.5 2 Q346 -12 285 -12 Z " />
<glyph glyph-name="T" unicode="T" horiz-adv-x="659" d="M391 118 Q391 84 399.5 63 Q408 42 421.5 30.5 Q435 19 450 14.5 Q465 10 478.5 8 Q492 6 500.5 5.5 Q509 5 509 1 L509 0 L144 0 L144 1 Q144 5 152.5 5.5 Q161 6 174.5 8 Q188 10 203 14.5 Q218 19 231.5 30.5 Q245 42 253.5 63 Q262 84 262 118 L262 669 L249 669 Q200 669 163.5 656.5 Q127 644 100.5 618.5 Q74 593 55 554 Q36 515 21 462 Q18 450 15 450 L13 450 L41 708 Q97 685 165.5 679.5 Q234 674 322 674 Q410 674 486.5 679.5 Q563 685 619 711 L647 450 Q646 450 646 449.5 Q646 449 645 449 Q640 449 639 461 Q610 568 556.5 618.5 Q503 669 411 669 L392 669 L391 118 Z " />
<glyph glyph-name="U" unicode="U" horiz-adv-x="842" d="M692 274 Q692 137 630 63 Q568 -11 434 -11 Q369 -11 315 3 Q261 17 222.5 48 Q184 79 163 127.5 Q142 176 142 245 L142 577 Q142 617 124 635.5 Q106 654 84.5 660.5 Q63 667 45 667 Q27 667 27 672 L27 674 L388 674 L388 672 Q388 669 379.5 668 Q371 667 358 665.5 Q345 664 329.5 660 Q314 656 301 646.5 Q288 637 279.5 620.5 Q271 604 271 577 L271 218 Q271 169 278 128.5 Q285 88 305.5 59 Q326 30 363.5 14 Q401 -2 463 -2 Q512 -2 553 14.5 Q594 31 624 64 Q654 97 670.5 147 Q687 197 687 263 L687 535 Q687 574 677 598.5 Q667 623 652.5 637 Q638 651 621 656.5 Q604 662 589.5 664.5 Q575 667 565 668 Q555 669 555 673 L555 674 L822 674 L822 673 Q822 669 812.5 668 Q803 667 788.5 664.5 Q774 662 757 656 Q740 650 725.5 636.5 Q711 623 701.5 599.5 Q692 576 692 538 L692 274 L692 274 Z " />
<glyph glyph-name="V" unicode="V" horiz-adv-x="738" d="M575 541 Q588 575 588 597 Q588 618 581 631 Q574 644 563 651 Q552 658 540 661 Q528 664 517.5 665.5 Q507 667 500.5 668 Q494 669 495 673 L732 673 Q733 669 726 668 Q719 667 707.5 665 Q696 663 680 657.5 Q664 652 646.5 638.5 Q629 625 612 601.5 Q595 578 580 540 Q527 402 475.5 265.5 Q424 129 371 -8 L366 -8 L117 596 Q104 627 85.5 641 Q67 655 50 660 Q33 665 21 666 Q9 667 9 671 L9 673 L331 673 L331 671 Q331 667 317 666.5 Q303 666 286.5 662 Q270 658 256.5 649 Q243 640 243 620 Q243 608 249.5 589 Q256 570 263 553 L428 156 L429 156 L575 541 Z " />
<glyph glyph-name="W" unicode="W" horiz-adv-x="1071" d="M727 -8 L722 -8 L514 550 Q468 410 423 271 Q378 132 332 -8 L327 -8 L108 596 Q97 626 79.5 640 Q62 654 45 659.5 Q28 665 16 666 Q4 667 4 671 L4 673 L318 673 L318 671 Q318 667 304 666 Q290 665 273.5 661.5 Q257 658 243.5 649 Q230 640 230 619 Q230 605 236 585.5 Q242 566 249 548 L384 168 Q416 265 447.5 360.5 Q479 456 510 553 Q518 580 518 597 Q518 626 500 639.5 Q482 653 460.5 658 Q439 663 421 664.5 Q403 666 403 671 L403 673 L704 673 L704 671 Q704 666 690.5 665.5 Q677 665 661.5 661.5 Q646 658 632.5 649.5 Q619 641 619 620 Q619 607 625 587 Q631 567 639 547 L780 166 L907 541 Q912 557 916 572 Q920 587 920 597 Q920 618 912.5 631 Q905 644 894.5 651 Q884 658 871 661 Q858 664 847.5 665.5 Q837 667 830.5 668 Q824 669 825 673 L1062 673 Q1063 667 1047.5 667.5 Q1032 668 1008.5 660 Q985 652 959 627.5 Q933 603 914 547 L727 -8 Z " />
<glyph glyph-name="X" unicode="X" horiz-adv-x="747" d="M324 302 L199 125 Q176 93 172 72 Q168 51 175 38.5 Q182 26 196.5 20 Q211 14 225.5 11 Q240 8 251 6.5 Q262 5 262 1 L262 0 L4 0 L4 1 Q4 6 20 6.5 Q36 7 62.5 16.5 Q89 26 123.5 50.5 Q158 75 196 129 L322 306 L135 599 Q115 629 95.5 643 Q76 657 60 662 Q44 667 34 667 Q24 667 24 671 L24 673 L367 673 L367 671 Q367 668 357 667 Q347 666 332.5 664 Q318 662 303.5 657.5 Q289 653 280.5 644 Q272 635 272 619.5 Q272 604 288 579 L407 395 L503 532 Q530 570 537.5 594.5 Q545 619 541.5 633 Q538 647 526 653.5 Q514 660 501 662.5 Q488 665 478 666 Q468 667 468 671 L468 673 L711 673 L711 672 Q711 667 694.5 666 Q678 665 650 654.5 Q622 644 585 616 Q548 588 506 528 L410 391 L612 78 Q632 46 654.5 32 Q677 18 695.5 12.5 Q714 7 726 6.5 Q738 6 738 2 L738 0 L385 0 L385 2 Q385 5 395 6 Q405 7 418.5 9 Q432 11 446 15.5 Q460 20 468.5 29.5 Q477 39 475.5 55 Q474 71 458 96 L324 302 Z " />
<glyph glyph-name="Y" unicode="Y" horiz-adv-x="696" d="M410 118 Q410 84 418.5 63 Q427 42 440.5 30.5 Q454 19 469 14.5 Q484 10 497.5 8 Q511 6 519.5 5.5 Q528 5 528 1 L528 0 L163 0 L163 1 Q163 5 171.5 5.5 Q180 6 193.5 8 Q207 10 222 14.5 Q237 19 250.5 30.5 Q264 42 272.5 63 Q281 84 281 118 L281 288 L108 596 Q90 627 71.5 641 Q53 655 37 660 Q21 665 11.5 666 Q2 667 2 671 L2 673 L335 673 L335 671 Q335 667 320.5 666 Q306 665 288.5 661 Q271 657 256.5 648.5 Q242 640 242 622 Q242 611 248 597 Q254 583 265 563 L407 314 L531 550 Q541 568 544.5 582.5 Q548 597 548 608 Q548 632 533 643.5 Q518 655 500.5 659.5 Q483 664 468 665.5 Q453 667 453 671 L453 673 L692 673 Q693 667 679 666.5 Q665 666 642 657.5 Q619 649 591 626 Q563 603 537 552 L410 309 L410 118 Z " />
<glyph glyph-name="Z" unicode="Z" horiz-adv-x="666" d="M358 4 Q409 4 448.5 16.5 Q488 29 520 58 Q552 87 579.5 134.5 Q607 182 633 252 Q635 259 637.5 264 Q640 269 643 269 L645 269 L592 -34 Q547 -15 494 -7.5 Q441 0 384 0 L19 0 L19 4 L457 669 L305 669 Q255 669 219 656.5 Q183 644 156 618 Q129 592 108.5 553 Q88 514 69 462 Q67 456 66 452.5 Q65 449 60 450 Q67 516 72 559 Q77 602 80 630.5 Q83 659 85 677 Q87 695 89 711 Q140 689 190 681.5 Q240 674 294 674 L608 674 L608 669 L178 4 L358 4 Z " />
<glyph glyph-name="bracketleft" unicode="&#x5b;" horiz-adv-x="287" d="M70 727 L257 727 L257 722 L169 722 L169 -182 L257 -182 L257 -186 L70 -186 L70 727 Z " />
<glyph glyph-name="backslash" unicode="&#x5c;" horiz-adv-x="285" d="M1 724 L10 724 L280 -50 L270 -50 L1 724 Z " />
<glyph glyph-name="bracketright" unicode="&#x5d;" horiz-adv-x="287" d="M217 -186 L31 -186 L31 -182 L119 -182 L119 722 L31 722 L31 727 L217 727 L217 -186 Z " />
<glyph glyph-name="asciicircum" unicode="&#x5e;" horiz-adv-x="557" d="M468 364 L277 668 L89 364 L68 364 L274 693 L283 693 L490 364 L468 364 Z " />
<glyph glyph-name="underscore" unicode="&#x5f;" horiz-adv-x="500" d="M0 -89 L0 -74 L500 -74 L500 -89 L0 -89 Z " />
<glyph glyph-name="grave" unicode="&#x60;" horiz-adv-x="502" d="M326 514 Q326 513 325.5 512.5 Q325 512 325 511 Q275 524 238.5 543 Q202 562 178 581 Q154 600 142.5 617.5 Q131 635 131 646 Q131 660 140.5 673.5 Q150 687 171 687 Q192 687 202 671.5 Q212 656 224.5 631.5 Q237 607 259 576 Q281 545 326 514 Z " />
<glyph glyph-name="a" unicode="a" horiz-adv-x="517" d="M253 449 Q314 449 350 432 Q386 415 404.5 388 Q423 361 428 327 Q433 293 433 260 L433 67 Q433 37 440 22.5 Q447 8 465 8 Q470 8 478 9.5 Q486 11 491 13 L492 9 Q478 2 454.5 -4 Q431 -10 406 -10 Q368 -10 346 5 Q324 20 322 61 Q305 39 285.5 25 Q266 11 244.5 2.5 Q223 -6 201 -9 Q179 -12 158 -12 Q133 -12 110.5 -5.5 Q88 1 71 14.5 Q54 28 44 48 Q34 68 34 95 Q34 140 55 169.5 Q76 199 110 216.5 Q144 234 185 241 Q226 248 267 248 Q295 248 321 245 L321 320 Q321 345 316.5 367 Q312 389 301.5 406 Q291 423 273.5 433 Q256 443 230 443 Q203 443 178.5 436.5 Q154 430 139 420 Q157 410 167 389.5 Q177 369 177 346 Q177 322 164 303 Q151 284 122 284 Q98 284 85 298.5 Q72 313 72 333 Q72 347 80 367 Q88 387 108.5 405 Q129 423 164 436 Q199 449 253 449 Z M215 5 Q245 5 274.5 23 Q304 41 321 68 L321 241 Q310 242 300 242.5 Q290 243 280 243 Q219 243 184.5 211.5 Q150 180 150 111 Q150 53 167 29 Q184 5 215 5 Z " />
<glyph glyph-name="b" unicode="b" horiz-adv-x="580" d="M78 637 Q78 670 66 683.5 Q54 697 39.5 701.5 Q25 706 13 705.5 Q1 705 1 710 L1 712 L188 733 L191 731 L191 527 Q191 516 190.5 499.5 Q190 483 188.5 463.5 Q187 444 184.5 423.5 Q182 403 178 384 L181 384 Q211 416 250.5 432.5 Q290 449 334 449 Q372 449 409.5 436 Q447 423 476.5 395 Q506 367 524 324.5 Q542 282 542 224 Q542 179 529 136.5 Q516 94 489.5 61 Q463 28 423 8 Q383 -12 329 -12 Q290 -12 251.5 -1 Q213 10 183 38 Q157 34 131.5 21 Q106 8 83 -21 L78 -21 L78 637 Z M295 433 Q269 433 241.5 422 Q214 411 188 385 L188 39 Q211 19 239 8.5 Q267 -2 299 -2 Q336 -2 359.5 12 Q383 26 396.5 54 Q410 82 415.5 122.5 Q421 163 421 217 Q421 319 393 376 Q365 433 295 433 Z " />
<glyph glyph-name="c" unicode="c" horiz-adv-x="458" d="M270 -12 Q216 -12 173 3.5 Q130 19 100 48.5 Q70 78 54 119 Q38 160 38 211 Q38 262 55 306 Q72 350 104.5 381.5 Q137 413 182.5 431 Q228 449 285 449 Q331 449 360.5 439 Q390 429 406.5 414 Q423 399 429.5 382 Q436 365 436 351 Q436 329 422 312.5 Q408 296 385 296 Q354 296 340.5 316 Q327 336 327 362 Q327 382 333 401 Q339 420 350 435 Q327 443 299 443 Q229 443 194 380.5 Q159 318 159 212 Q159 153 169.5 113 Q180 73 198.5 48.5 Q217 24 243 13 Q269 2 301 2 Q334 2 370 11.5 Q406 21 441 47 L444 44 Q409 18 366.5 3 Q324 -12 270 -12 Z " />
<glyph glyph-name="d" unicode="d" horiz-adv-x="594" d="M245 -11 Q142 -11 90 47 Q38 105 38 207 Q38 266 55.5 311 Q73 356 103 387 Q133 418 173.5 433.5 Q214 449 261 449 Q271 449 286.5 448 Q302 447 320 443 Q338 439 357 432.5 Q376 426 393 415 L393 637 Q393 670 381 683.5 Q369 697 354.5 701.5 Q340 706 328 705.5 Q316 705 316 710 L316 712 L503 733 L506 731 Q506 568 505.5 407.5 Q505 247 505 85 Q505 52 517 38 Q529 24 543.5 19.5 Q558 15 570 15 Q582 15 582 11 L582 9 Q535 4 489 -0.5 Q443 -5 397 -10 L395 -8 L401 66 Q399 66 399 67 Q369 25 326.5 7 Q284 -11 245 -11 Z M277 4 Q315 4 346 23 Q377 42 394 68 Q394 154 393.5 239 Q393 324 393 410 Q366 427 336.5 433.5 Q307 440 287 440 Q250 440 225.5 423 Q201 406 186 376 Q171 346 164.5 305 Q158 264 158 216 Q158 103 190 53.5 Q222 4 277 4 Z " />
<glyph glyph-name="e" unicode="e" horiz-adv-x="511" d="M472 247 L158 236 Q158 173 166 129 Q174 85 192 57 Q210 29 239.5 16 Q269 3 311 3 Q351 3 389.5 17.5 Q428 32 463 67 L466 64 Q433 29 387 9 Q341 -11 280 -11 Q221 -11 176 6 Q131 23 100.5 54 Q70 85 54 126.5 Q38 168 38 218 Q38 267 54.5 309 Q71 351 101.5 382 Q132 413 175 431 Q218 449 271 449 Q319 449 356 433 Q393 417 419 390 Q445 363 459.5 327 Q474 291 477 251 L472 247 Z M268 444 Q219 444 191.5 391.5 Q164 339 158 241 Q210 243 261 245 Q312 247 363 249 L363 282 Q363 314 358.5 343 Q354 372 342.5 394.5 Q331 417 313 430.5 Q295 444 268 444 Z " />
<glyph glyph-name="f" unicode="f" horiz-adv-x="325" d="M27 431 L27 436 L96 436 Q96 464 99 493.5 Q102 523 108 550 Q114 577 122.5 600.5 Q131 624 143 641 Q156 659 172 677 Q188 695 208 708.5 Q228 722 251.5 730.5 Q275 739 302 739 Q331 739 355 724.5 Q379 710 379 679 Q379 661 364.5 644 Q350 627 323 627 Q290 627 272 651.5 Q254 676 254 711 Q254 715 254 718.5 Q254 722 255 727 Q228 718 217.5 701 Q207 684 207 655 L207 436 L317 436 L317 431 L207 431 L207 76 Q207 46 219.5 32 Q232 18 247 12.5 Q262 7 274.5 6.5 Q287 6 287 2 L287 0 L11 0 L11 2 Q11 6 24.5 6.5 Q38 7 53.5 12.5 Q69 18 82.5 33 Q96 48 96 81 L96 431 L27 431 Z " />
<glyph glyph-name="g" unicode="g" horiz-adv-x="502" d="M240 450 Q263 450 291 445 Q288 463 288 483 Q288 503 295 522 Q302 541 315 555.5 Q328 570 346.5 579 Q365 588 388 588 Q409 588 429 576.5 Q449 565 449 539 Q449 514 431.5 501.5 Q414 489 392 489 Q369 489 347 504 Q325 519 320 554 Q306 540 299 520.5 Q292 501 292 481 Q292 460 296 444 Q326 438 352.5 424.5 Q379 411 399 391 Q419 371 430.5 344 Q442 317 442 284 Q442 250 428 219.5 Q414 189 388 166 Q362 143 324.5 129.5 Q287 116 239 116 Q210 116 175.5 124 Q141 132 115 146 Q91 134 73 116 Q55 98 55 83 Q55 64 87 57.5 Q119 51 167 49 Q215 47 270.5 44.5 Q326 42 374 32 Q422 22 454 -1 Q486 -24 486 -67 Q486 -97 468.5 -126.5 Q451 -156 417.5 -179.5 Q384 -203 335 -217.5 Q286 -232 223 -232 Q170 -232 130.5 -220.5 Q91 -209 65 -190 Q39 -171 25.5 -147 Q12 -123 12 -98 Q12 -71 28 -51 Q44 -31 69 -31 Q95 -31 108 -48.5 Q121 -66 121 -84 Q121 -95 118 -107.5 Q115 -120 108 -133 Q101 -146 88.5 -157.5 Q76 -169 58 -176 Q77 -194 118 -210.5 Q159 -227 222 -227 Q259 -227 286 -216.5 Q313 -206 330 -188 Q347 -170 355.5 -147 Q364 -124 364 -100 Q364 -60 340 -39 Q316 -18 280 -7 Q244 4 202 8 Q160 12 124 18 Q88 24 64 35 Q40 46 40 71 Q40 88 58 109.5 Q76 131 111 148 Q73 169 55.5 205 Q38 241 38 283 Q38 318 52.5 348.5 Q67 379 93 401.5 Q119 424 156.5 437 Q194 450 240 450 Z M153 282 Q153 247 157 217.5 Q161 188 170.5 166.5 Q180 145 197.5 132.5 Q215 120 242 120 Q268 120 284.5 132.5 Q301 145 310 167 Q319 189 322.5 219.5 Q326 250 326 286 Q326 319 322.5 348.5 Q319 378 309.5 399.5 Q300 421 283.5 433.5 Q267 446 241 446 Q217 446 200 433.5 Q183 421 172.5 399 Q162 377 157.5 347 Q153 317 153 282 Z " />
<glyph glyph-name="h" unicode="h" horiz-adv-x="602" d="M497 74 Q497 44 509 30.5 Q521 17 536 12 Q551 7 563 6.5 Q575 6 575 2 L575 0 L318 0 L318 2 Q318 6 328.5 6 Q339 6 351 11.5 Q363 17 373.5 31 Q384 45 384 77 L384 365 Q384 400 370.5 416.5 Q357 433 325 433 Q293 433 261 415 Q229 397 211 368 L211 71 Q211 42 221.5 29 Q232 16 244.5 11.5 Q257 7 267.5 6.5 Q278 6 278 2 L278 0 L22 0 L22 2 Q22 6 34 6.5 Q46 7 60.5 12.5 Q75 18 87 33 Q99 48 99 81 L99 636 Q99 669 87 683 Q75 697 61 701.5 Q47 706 35 705.5 Q23 705 23 710 L23 712 L210 732 L212 730 L212 529 Q212 515 211.5 493 Q211 471 209.5 447.5 Q208 424 205.5 402 Q203 380 200 366 Q200 366 202 365 L203 365 Q232 409 273 429 Q314 449 359 449 Q385 449 410 442 Q435 435 454.5 419.5 Q474 404 485.5 378 Q497 352 497 315 L497 74 Z " />
<glyph glyph-name="i" unicode="i" horiz-adv-x="338" d="M167 685 Q196 685 215.5 665 Q235 645 235 619 Q235 590 215.5 570 Q196 550 167 550 Q138 550 119 570 Q100 590 100 619 Q100 645 119 665 Q138 685 167 685 Z M228 76 Q228 46 240.5 32 Q253 18 267.5 12.5 Q282 7 294.5 6.5 Q307 6 307 2 L307 0 L30 0 L30 2 Q30 6 43.5 6.5 Q57 7 72.5 12.5 Q88 18 101.5 33 Q115 48 115 81 L115 354 Q115 386 102 399.5 Q89 413 73 417.5 Q57 422 44 421.5 Q31 421 31 426 L31 428 L225 449 L228 447 L228 76 Z " />
<glyph glyph-name="j" unicode="j" horiz-adv-x="282" d="M205 59 Q205 1 198.5 -53 Q192 -107 165 -146 Q154 -163 137.5 -177.5 Q121 -192 102.5 -203.5 Q84 -215 63.5 -221.5 Q43 -228 23 -228 Q-6 -228 -27.5 -214 Q-49 -200 -49 -171 Q-49 -154 -36 -139.5 Q-23 -125 1 -125 Q36 -125 53 -149 Q70 -173 72 -214 Q95 -206 117 -189 Q139 -172 147 -161 Q145 -128 128 -97 Q111 -66 92 -50 L92 354 Q92 386 79 399.5 Q66 413 50 417.5 Q34 422 21 421.5 Q8 421 8 426 L8 428 L202 449 L205 447 L205 59 Z M144 685 Q173 685 192.5 665 Q212 645 212 619 Q212 590 192.5 570 Q173 550 144 550 Q115 550 96 570 Q77 590 77 619 Q77 645 96 665 Q115 685 144 685 Z " />
<glyph glyph-name="k" unicode="k" horiz-adv-x="587" d="M20 2 Q20 6 33 6.5 Q46 7 62 12.5 Q78 18 91 33 Q104 48 104 81 L103 636 Q103 669 91 683 Q79 697 65 701.5 Q51 706 39 705.5 Q27 705 27 710 L27 712 L214 732 L216 730 L216 234 L259 234 L361 338 Q376 353 382 365 Q388 377 388 386 Q388 404 375 412 Q362 420 346 423.5 Q330 427 317 428.5 Q304 430 304 434 L304 436 L549 436 L549 434 Q549 429 536.5 429 Q524 429 502 423 Q470 415 435.5 393.5 Q401 372 362 332 L329 298 L456 95 Q481 55 504.5 37 Q528 19 546.5 13 Q565 7 575.5 6.5 Q586 6 585 0 L395 0 L249 229 L216 229 L216 76 Q216 46 229 32 Q242 18 257.5 12.5 Q273 7 286 6.5 Q299 6 299 2 L299 0 L20 0 L20 2 L20 2 Z " />
<glyph glyph-name="l" unicode="l" horiz-adv-x="329" d="M223 76 Q223 46 235.5 32 Q248 18 262.5 12.5 Q277 7 289.5 6.5 Q302 6 302 2 L302 0 L27 0 L27 2 Q27 6 40.5 6.5 Q54 7 69.5 12.5 Q85 18 98.5 33 Q112 48 112 81 L112 639 Q112 671 99 684.5 Q86 698 70 702.5 Q54 707 41 707 Q28 707 28 712 L28 713 L221 734 L223 732 L223 76 Z " />
<glyph glyph-name="m" unicode="m" horiz-adv-x="864" d="M625 449 Q652 449 676 442 Q700 435 718.5 419.5 Q737 404 748 378 Q759 352 759 315 L759 74 Q759 44 771 30.5 Q783 17 798 12 Q813 7 825 6.5 Q837 6 837 2 L837 0 L584 0 L584 2 Q584 6 593.5 6 Q603 6 615 11.5 Q627 17 636.5 31 Q646 45 646 77 L646 350 Q646 387 635 410.5 Q624 434 589 434 Q562 434 533 414 Q504 394 484 362 Q489 339 489 315 L489 74 Q489 44 499 30.5 Q509 17 521.5 12 Q534 7 544 6.5 Q554 6 554 2 L554 0 L312 0 L312 2 Q312 6 322 6 Q332 6 344.5 11.5 Q357 17 367 31 Q377 45 377 77 L377 350 Q377 387 365 410.5 Q353 434 317 434 Q290 434 263 414.5 Q236 395 219 368 L219 71 Q219 42 228.5 29 Q238 16 250 11.5 Q262 7 271.5 6.5 Q281 6 281 2 L281 0 L31 0 L31 2 Q31 6 43 6.5 Q55 7 69.5 12.5 Q84 18 96 33 Q108 48 108 81 L108 352 Q108 385 96 399 Q84 413 69.5 417.5 Q55 422 43 421.5 Q31 421 31 426 L31 428 L215 448 L218 446 L212 368 L214 368 Q242 411 277.5 430 Q313 449 355 449 Q398 449 433 430.5 Q468 412 482 368 Q510 407 545 428 Q580 449 625 449 Z " />
<glyph glyph-name="n" unicode="n" horiz-adv-x="610" d="M504 74 Q504 44 516.5 30.5 Q529 17 543.5 12 Q558 7 570.5 6.5 Q583 6 583 2 L583 0 L326 0 L326 2 Q326 6 336.5 6 Q347 6 359 11.5 Q371 17 381.5 31 Q392 45 392 77 L392 350 Q392 387 376.5 410 Q361 433 324 433 Q295 433 265.5 414 Q236 395 219 368 L219 71 Q219 42 229.5 29 Q240 16 253 11.5 Q266 7 276.5 6.5 Q287 6 287 2 L287 0 L31 0 L31 2 Q31 6 43 6.5 Q55 7 69.5 12.5 Q84 18 96 33 Q108 48 108 81 L108 352 Q108 385 96 399 Q84 413 69.5 417.5 Q55 422 43 421.5 Q31 421 31 426 L31 428 L215 448 L218 446 Q216 426 214.5 406.5 Q213 387 211 367 L213 367 Q242 410 283.5 429.5 Q325 449 367 449 Q393 449 418 442 Q443 435 462 419.5 Q481 404 492.5 378 Q504 352 504 315 L504 74 Z " />
<glyph glyph-name="o" unicode="o" horiz-adv-x="559" d="M38 220 Q38 268 54.5 309.5 Q71 351 102 382.5 Q133 414 177.5 432 Q222 450 278 450 Q337 450 382.5 432 Q428 414 458.5 382.5 Q489 351 505 309.5 Q521 268 521 222 Q521 175 504.5 132.5 Q488 90 456.5 58 Q425 26 380 7 Q335 -12 278 -12 Q219 -12 174.5 6.5 Q130 25 99.5 56.5 Q69 88 53.5 130.5 Q38 173 38 220 Z M158 221 Q158 170 162.5 128 Q167 86 180 56 Q193 26 217 9.5 Q241 -7 280 -7 Q318 -7 341.5 10 Q365 27 378.5 57 Q392 87 396.5 128 Q401 169 401 217 Q401 269 395.5 311 Q390 353 376.5 383 Q363 413 339 429 Q315 445 279 445 Q243 445 220 426.5 Q197 408 183 377.5 Q169 347 163.5 306.5 Q158 266 158 221 Z " />
<glyph glyph-name="p" unicode="p" horiz-adv-x="612" d="M106 352 Q106 385 94 399 Q82 413 68 417.5 Q54 422 42 421.5 Q30 421 30 426 L30 428 L214 448 L217 446 Q215 427 213.5 408 Q212 389 210 369 L212 369 Q228 393 247.5 408.5 Q267 424 288 433 Q309 442 328.5 445.5 Q348 449 364 449 Q415 449 454.5 432.5 Q494 416 520.5 386.5 Q547 357 560.5 315.5 Q574 274 574 224 Q574 166 557 122 Q540 78 510 48 Q480 18 438.5 3 Q397 -12 347 -12 Q339 -12 323.5 -10 Q308 -8 290 -4.5 Q272 -1 253 5.5 Q234 12 218 21 L218 -142 Q218 -171 230.5 -184 Q243 -197 258 -202 Q273 -207 285.5 -208 Q298 -209 298 -213 L298 -215 L31 -215 L31 -213 Q31 -209 42.5 -208.5 Q54 -208 68.5 -202.5 Q83 -197 94.5 -182 Q106 -167 106 -134 L106 352 Z M325 -2 Q361 -2 386 14.5 Q411 31 426 61 Q441 91 447.5 132 Q454 173 454 222 Q454 278 445 318 Q436 358 420.5 383.5 Q405 409 383 421 Q361 433 334 433 Q305 433 274 420 Q243 407 218 371 L218 27 Q245 10 274.5 4 Q304 -2 325 -2 Z " />
<glyph glyph-name="q" unicode="q" horiz-adv-x="565" d="M391 45 Q363 16 325.5 1.5 Q288 -13 246 -13 Q207 -13 170 -0.5 Q133 12 103.5 39 Q74 66 56 107.5 Q38 149 38 208 Q38 257 52 301 Q66 345 93 377 Q120 409 161 428 Q202 447 256 447 Q290 447 327 435.5 Q364 424 396 395 Q431 400 457 417.5 Q483 435 500 459 L504 459 L504 -139 Q504 -170 516 -184 Q528 -198 543 -203 Q558 -208 570 -209 Q582 -210 582 -214 L582 -216 L313 -216 L313 -214 Q313 -210 325.5 -209.5 Q338 -209 352.5 -203.5 Q367 -198 379.5 -183 Q392 -168 392 -135 L392 45 L391 45 Z M282 1 Q309 1 337 13 Q365 25 391 51 L391 393 Q372 410 343 423 Q314 436 284 436 Q214 436 185.5 377.5 Q157 319 157 213 Q157 162 163.5 122.5 Q170 83 184.5 56 Q199 29 223 15 Q247 1 282 1 Z " />
<glyph glyph-name="r" unicode="r" horiz-adv-x="423" d="M215 313 Q216 313 216.5 312.5 Q217 312 218 312 Q223 351 236.5 377 Q250 403 268.5 419 Q287 435 308 442 Q329 449 349 449 Q377 449 399.5 433.5 Q422 418 422 390 Q422 364 405.5 350 Q389 336 366 336 Q337 336 315.5 357 Q294 378 294 416 Q294 426 295 431 Q283 426 271 416 Q259 406 248.5 389.5 Q238 373 230.5 350 Q223 327 221 296 L221 73 Q221 44 232 31 Q243 18 256.5 13 Q270 8 281.5 7 Q293 6 293 2 L293 0 L30 0 L30 2 Q30 6 42.5 6.5 Q55 7 69.5 12.5 Q84 18 96.5 33 Q109 48 109 81 L109 353 Q109 386 97 399.5 Q85 413 70.5 417.5 Q56 422 44 421.5 Q32 421 32 426 L32 428 L220 448 L223 446 Q222 432 221 415 Q220 398 219 379.5 Q218 361 217 343.5 Q216 326 215 313 Z " />
<glyph glyph-name="s" unicode="s" horiz-adv-x="412" d="M206 451 Q227 451 245.5 447 Q264 443 280.5 441.5 Q297 440 311 445 Q325 450 337 468 L339 468 L347 286 L345 286 Q343 286 338 306 Q328 345 313 371.5 Q298 398 280 414.5 Q262 431 244 438 Q226 445 210 445 Q179 445 160.5 427.5 Q142 410 142 381 Q142 354 159.5 334.5 Q177 315 203 298 Q229 281 259.5 264.5 Q290 248 316 227.5 Q342 207 359.5 181 Q377 155 377 119 Q377 62 334.5 24.5 Q292 -13 207 -13 Q184 -13 161 -7.5 Q138 -2 116.5 0 Q95 2 76 -3 Q57 -8 42 -29 L38 -29 L30 184 L32 184 Q36 184 39 163 Q55 78 97.5 35.5 Q140 -7 200 -7 Q235 -7 256 13.5 Q277 34 277 66 Q277 98 260 120.5 Q243 143 218 161 Q193 179 163 195.5 Q133 212 108 231 Q83 250 66 274.5 Q49 299 49 334 Q49 391 91.5 421 Q134 451 206 451 Z " />
<glyph glyph-name="t" unicode="t" horiz-adv-x="329" d="M328 30 Q287 4 250.5 -3.5 Q214 -11 191 -11 Q156 -11 133.5 -3 Q111 5 98.5 19 Q86 33 81.5 53 Q77 73 77 96 L77 431 L14 431 L14 436 L78 436 Q134 450 158 488.5 Q182 527 185 580 L189 580 L189 436 L319 436 L319 431 L189 431 L189 69 Q189 38 200 21 Q211 4 242 4 Q256 4 277.5 10.5 Q299 17 326 33 L328 30 L328 30 Z " />
<glyph glyph-name="u" unicode="u" horiz-adv-x="563" d="M201 89 Q201 51 215 27.5 Q229 4 265 4 Q293 4 322.5 23 Q352 42 368 68 L368 353 Q368 385 354.5 399 Q341 413 325.5 417.5 Q310 422 296.5 421.5 Q283 421 283 426 L283 428 L477 448 L480 446 L480 85 Q480 52 492 38 Q504 24 518 19.5 Q532 15 544 15 Q556 15 556 11 L556 9 Q510 4 464 -0.5 Q418 -5 371 -10 L369 -8 L375 66 Q375 66 373 67 Q344 25 304 6.5 Q264 -12 222 -12 Q196 -12 172 -5.5 Q148 1 130 16.5 Q112 32 101.5 58 Q91 84 91 122 Q91 180 90.5 237.5 Q90 295 90 353 Q90 385 77 399 Q64 413 48 417.5 Q32 422 19 421.5 Q6 421 6 426 L6 428 L199 448 L201 446 L201 89 Z " />
<glyph glyph-name="v" unicode="v" horiz-adv-x="556" d="M407 323 Q420 354 420.5 374 Q421 394 413.5 405 Q406 416 394.5 420.5 Q383 425 371.5 427 Q360 429 351.5 429.5 Q343 430 343 434 L343 436 L548 436 L548 434 Q548 429 534 429.5 Q520 430 499.5 422.5 Q479 415 455.5 393.5 Q432 372 412 324 L275 -7 L273 -7 L101 356 Q86 388 68.5 403 Q51 418 37 423.5 Q23 429 14 429.5 Q5 430 5 434 L5 436 L298 436 L298 434 Q298 431 290 430 Q282 429 270.5 427.5 Q259 426 247 422.5 Q235 419 227 411 Q219 403 217.5 388.5 Q216 374 227 351 L327 129 L407 323 Z " />
<glyph glyph-name="w" unicode="w" horiz-adv-x="793" d="M376 332 Q386 359 384.5 376.5 Q383 394 375 404 Q367 414 355 419 Q343 424 331.5 426 Q320 428 312 429.5 Q304 431 304 434 L304 436 L561 436 L561 434 Q561 429 544.5 429 Q528 429 511 423.5 Q494 418 484.5 402 Q475 386 490 351 L578 138 L651 337 Q666 379 658 397.5 Q650 416 633.5 422.5 Q617 429 601 429 Q585 429 585 434 L585 436 L784 436 L784 434 Q784 429 770 430 Q756 431 735.5 424 Q715 417 692.5 397.5 Q670 378 654 333 L529 -8 L526 -8 L382 337 L257 -8 L253 -8 L101 356 Q87 389 70.5 403.5 Q54 418 40 423.5 Q26 429 16 429.5 Q6 430 6 434 L6 436 L284 436 L284 434 Q284 431 276.5 430.5 Q269 430 258.5 428.5 Q248 427 236.5 423.5 Q225 420 217.5 412 Q210 404 209 389.5 Q208 375 218 351 L305 137 L376 332 Z " />
<glyph glyph-name="x" unicode="x" horiz-adv-x="572" d="M235 189 L180 111 Q166 90 156.5 72.5 Q147 55 147 44 Q147 27 158.5 19.5 Q170 12 183.5 9 Q197 6 208.5 5.5 Q220 5 220 2 L220 0 L8 0 Q6 6 18.5 5.5 Q31 5 53.5 11.5 Q76 18 106 38 Q136 58 170 105 L233 193 L117 361 Q96 391 77.5 405 Q59 419 45 424 Q31 429 23 429.5 Q15 430 15 434 L15 436 L299 436 L299 434 Q299 431 288.5 429.5 Q278 428 266 425 Q254 422 243.5 415 Q233 408 233 393 Q233 384 239.5 371.5 Q246 359 258 341 L316 257 L364 323 Q380 344 389 363.5 Q398 383 398 394 Q398 410 386.5 417 Q375 424 360.5 426.5 Q346 429 334.5 429.5 Q323 430 323 434 L323 436 L539 436 Q540 430 527.5 430.5 Q515 431 492.5 424 Q470 417 439.5 397 Q409 377 375 331 L318 253 L442 75 Q462 46 484 32.5 Q506 19 524 13.5 Q542 8 553.5 7 Q565 6 565 2 L565 0 L253 0 L253 2 Q253 5 265 6.5 Q277 8 291 11 Q305 14 317 19.5 Q329 25 329 37 Q329 45 325 55.5 Q321 66 311 80 L235 189 Z " />
<glyph glyph-name="y" unicode="y" horiz-adv-x="558" d="M269 -62 Q256 -96 239.5 -126.5 Q223 -157 201.5 -179.5 Q180 -202 153.5 -215 Q127 -228 94 -228 Q63 -228 41 -211.5 Q19 -195 19 -169 Q19 -144 36.5 -130 Q54 -116 77 -116 Q95 -116 110 -123.5 Q125 -131 136 -143.5 Q147 -156 153.5 -172 Q160 -188 162 -205 Q190 -190 217 -154 Q244 -118 267 -55 L283 -13 L101 356 Q85 388 68 402.5 Q51 417 37 422.5 Q23 428 14 429 Q5 430 5 434 L5 436 L295 436 L295 434 Q295 430 282 429 Q269 428 254 425 Q239 422 226 414 Q213 406 213 388 Q213 372 224 351 L335 123 L411 323 Q418 340 420.5 353 Q423 366 423 377 Q423 401 411.5 411 Q400 421 385.5 424.5 Q371 428 359.5 428.5 Q348 429 348 434 L348 436 L552 436 L552 434 Q552 429 537.5 429.5 Q523 430 502 422.5 Q481 415 457.5 393.5 Q434 372 416 324 L269 -62 Z " />
<glyph glyph-name="z" unicode="z" horiz-adv-x="473" d="M238 4 Q280 4 312 12.5 Q344 21 368 40.5 Q392 60 409 90.5 Q426 121 439 165 Q443 178 447 178 L448 178 L418 -25 Q382 -10 339.5 -5 Q297 0 245 0 L22 0 L22 4 L305 431 L250 431 Q211 431 181.5 425 Q152 419 128.5 403 Q105 387 87.5 359.5 Q70 332 55 290 Q53 284 51.5 281 Q50 278 47 278 L46 278 L75 460 Q110 446 151.5 441 Q193 436 241 436 L434 436 L434 431 Q423 413 401 379.5 Q379 346 352 304.5 Q325 263 295.5 217.5 Q266 172 239 130.5 Q212 89 190 55.5 Q168 22 157 4 L238 4 Z " />
<glyph glyph-name="braceleft" unicode="&#x7b;" horiz-adv-x="354" d="M85 304 Q166 294 198 244.5 Q230 195 230 100 L230 -87 Q230 -106 233 -123 Q236 -140 245.5 -152.5 Q255 -165 273.5 -172.5 Q292 -180 324 -180 L324 -184 Q263 -183 225.5 -169 Q188 -155 167 -130 Q146 -105 139 -70 Q132 -35 132 9 L132 176 Q132 200 130 222 Q128 244 120 261 Q112 278 95.5 289 Q79 300 50 303 L50 307 Q77 311 93.5 320.5 Q110 330 118.5 344.5 Q127 359 129.5 379 Q132 399 132 423 L132 520 Q132 563 138.5 601 Q145 639 165.5 666.5 Q186 694 224 710 Q262 726 324 726 L324 722 Q290 722 271 713 Q252 704 243 689.5 Q234 675 232 656.5 Q230 638 230 620 L230 497 Q230 416 196 364.5 Q162 313 85 305 L85 304 Z " />
<glyph glyph-name="bar" unicode="&#x7c;" horiz-adv-x="318" d="M165 744 L165 -141 L154 -141 L154 744 L165 744 Z " />
<glyph glyph-name="braceright" unicode="&#x7d;" horiz-adv-x="354" d="M271 305 Q193 313 158.5 363.5 Q124 414 124 497 L124 620 Q124 638 122 656 Q120 674 111 689 Q102 704 83 713 Q64 722 30 722 L30 726 Q222 726 222 544 L222 423 Q222 399 224.5 379 Q227 359 235.5 344 Q244 329 260.5 319.5 Q277 310 304 306 L304 303 Q275 300 258.5 289 Q242 278 234 261 Q226 244 224 222 Q222 200 222 176 L222 -11 Q222 -51 213 -82.5 Q204 -114 182 -136.5 Q160 -159 123 -171 Q86 -183 30 -184 L30 -180 Q63 -180 81.5 -172.5 Q100 -165 109.5 -152.5 Q119 -140 121.5 -123.5 Q124 -107 124 -88 L124 100 Q124 196 156.5 246 Q189 296 271 303 L271 305 Z " />
<glyph glyph-name="asciitilde" unicode="&#x7e;" horiz-adv-x="554" d="M505 345 Q500 321 489.5 297.5 Q479 274 462 255.5 Q445 237 421 225 Q397 213 364 213 Q343 213 316 219 Q289 225 260 232.5 Q231 240 201 246.5 Q171 253 146 253 Q117 253 93.5 242 Q70 231 57 196 L52 197 Q54 215 62 237.5 Q70 260 86 280.5 Q102 301 126.5 314.5 Q151 328 186 328 Q207 328 235 321.5 Q263 315 294 307.5 Q325 300 356 293.5 Q387 287 413 287 Q433 287 446.5 289.5 Q460 292 470 299 Q480 306 487 317.5 Q494 329 501 347 L505 345 Z " />
<glyph glyph-name="primemod" unicode="&#x2b9;" horiz-adv-x="246" d="M140 658 Q146 675 158 682.5 Q170 690 182 690 Q199 690 213.5 678 Q228 666 228 649 Q228 635 215 617 L43 388 L38 390 L140 658 Z " />
<glyph glyph-name="caron" unicode="&#x2c7;" horiz-adv-x="502" d="M396 677 L400 674 L261 515 Q253 506 247 506 Q243 506 234 515 L93 674 L96 677 L248 587 L396 677 Z " />
<glyph glyph-name="breve" unicode="&#x2d8;" horiz-adv-x="502" d="M244 511 Q184 511 143 552.5 Q102 594 92 671 L97 672 Q126 615 166 594 Q206 573 244 573 Q261 573 280.5 577 Q300 581 319.5 592 Q339 603 358.5 622.5 Q378 642 396 674 L401 672 Q393 627 375.5 596.5 Q358 566 336.5 547 Q315 528 290.5 519.5 Q266 511 244 511 Z " />
<glyph glyph-name="dotaccent" unicode="&#x2d9;" horiz-adv-x="482" d="M240 659 Q266 659 283.5 641 Q301 623 301 599 Q301 573 283.5 554.5 Q266 536 240 536 Q215 536 197.5 554.5 Q180 573 180 599 Q180 623 197.5 641 Q215 659 240 659 Z " />
<glyph glyph-name="ring" unicode="&#x2da;" horiz-adv-x="502" d="M250 511 Q211 511 184 536.5 Q157 562 157 600 Q157 619 164 635.5 Q171 652 184 664 Q197 676 213.5 683 Q230 690 250 690 Q269 690 285.5 683 Q302 676 314 664 Q326 652 333 635.5 Q340 619 340 600 Q340 562 314 536.5 Q288 511 250 511 Z M250 666 Q220 666 201.5 646 Q183 626 183 600 Q183 574 200.5 554 Q218 534 250 534 Q280 534 297.5 554 Q315 574 315 600 Q315 624 297 645 Q279 666 250 666 Z " />
<glyph glyph-name="ogonek" unicode="&#x2db;" horiz-adv-x="498" d="M412 34 Q391 19 376 1.5 Q361 -16 351.5 -35 Q342 -54 337.5 -71.5 Q333 -89 333 -104 Q333 -147 362 -168.5 Q391 -190 436 -190 Q461 -190 496 -179 Q496 -180 498 -182 Q473 -196 439 -205 Q405 -214 370 -214 Q312 -214 286.5 -190.5 Q261 -167 261 -131 Q261 -115 269 -94.5 Q277 -74 294.5 -51.5 Q312 -29 340.5 -6.5 Q369 16 410 37 L412 34 Z " />
<glyph glyph-name="hungarumlaut" unicode="&#x2dd;" horiz-adv-x="514" d="M94 516 Q93 517 93 518 L93 520 Q138 548 161 577 Q184 606 197.5 630 Q211 654 221.5 669 Q232 684 253 684 Q274 684 283 671 Q292 658 292 644 Q292 633 280.5 616 Q269 599 245 580.5 Q221 562 183.5 544.5 Q146 527 94 516 Z M243 515 Q243 516 242.5 517 Q242 518 242 519 Q287 547 310 576 Q333 605 346.5 629 Q360 653 370.5 668 Q381 683 402 683 Q423 683 432 670.5 Q441 658 441 644 Q441 633 429.5 616 Q418 599 394 580.5 Q370 562 332.5 544.5 Q295 527 243 515 Z " />
<glyph glyph-name="tonos" unicode="&#x384;" horiz-adv-x="502" d="M190 504 Q232 539 250 573 Q268 607 278 633.5 Q288 660 297 676 Q306 692 330 692 Q350 692 360.5 680 Q371 668 371 654 Q371 642 360.5 623.5 Q350 605 328.5 583.5 Q307 562 273 540.5 Q239 519 192 501 L190 504 Z " />
<glyph glyph-name="dieresistonos" unicode="&#x385;" horiz-adv-x="544" d="M87 596 Q87 619 103.5 635 Q120 651 143 651 Q166 651 182 635 Q198 619 198 596 Q198 573 182 556.5 Q166 540 143 540 Q120 540 103.5 556.5 Q87 573 87 596 Z M348 596 Q348 619 364 635 Q380 651 403 651 Q426 651 442.5 635 Q459 619 459 596 Q459 573 442.5 556.5 Q426 540 403 540 Q380 540 364 556.5 Q348 573 348 596 Z M180 502 Q180 503 177 506 Q214 545 229 581 Q244 617 252 644 Q260 671 269.5 687.5 Q279 704 305 704 Q322 704 333 693 Q344 682 344 668 Q344 656 334.5 636.5 Q325 617 305 594.5 Q285 572 254 548 Q223 524 180 502 Z " />
<glyph glyph-name="Euro" unicode="&#x20ac;" horiz-adv-x="554" d="M6 379 L6 384 L54 384 Q61 444 85.5 496 Q110 548 148 586.5 Q186 625 237.5 647 Q289 669 352 669 Q390 669 422.5 660.5 Q455 652 478.5 637 Q502 622 515.5 601.5 Q529 581 529 557 Q529 530 513 516 Q497 502 478 502 Q443 502 429 523.5 Q415 545 415 574 Q415 594 421 614.5 Q427 635 436 651 Q418 659 398 662 Q378 665 358 665 Q312 665 279.5 642.5 Q247 620 226 582 Q205 544 194.5 492.5 Q184 441 181 384 L426 384 L426 379 L6 379 Z M426 288 L426 283 L178 283 Q179 216 190 162.5 Q201 109 223 72 Q245 35 279 15 Q313 -5 361 -5 Q381 -5 404 -2.5 Q427 0 450 11 Q432 37 432 80 Q432 95 435.5 110 Q439 125 446.5 137 Q454 149 466.5 156 Q479 163 496 163 Q514 163 530 148.5 Q546 134 546 108 Q546 84 532 62.5 Q518 41 492.5 25 Q467 9 431 -0.5 Q395 -10 352 -10 Q285 -10 231 10.5 Q177 31 138 69.5 Q99 108 76.5 162 Q54 216 51 283 L6 283 L6 288 L426 288 Z " />
<glyph glyph-name="quotesinglbase" unicode="&#x201a;" horiz-adv-x="235" d="M180 37 Q180 17 173 -6 Q166 -29 153.5 -53 Q141 -77 123.5 -99.5 Q106 -122 86 -139 L81 -134 Q97 -119 112 -100.5 Q127 -82 139 -62 Q151 -42 159 -22 Q167 -2 170 17 Q160 6 146.5 2 Q133 -2 120 -2 Q95 -2 78 12.5 Q61 27 61 53 Q61 76 76.5 92.5 Q92 109 117 109 Q149 109 164.5 88.5 Q180 68 180 37 Z " />
<glyph glyph-name="florin" unicode="&#x192;" horiz-adv-x="554" d="M230 364 Q241 423 259.5 478 Q278 533 305.5 576 Q333 619 369.5 644.5 Q406 670 453 670 Q469 670 485.5 665.5 Q502 661 515 653 Q528 645 536 632 Q544 619 544 603 Q544 585 530.5 571.5 Q517 558 497 558 Q486 558 474 562.5 Q462 567 451.5 576.5 Q441 586 434 601.5 Q427 617 427 639 Q427 650 430 664 Q408 662 394.5 641.5 Q381 621 372.5 582.5 Q364 544 357.5 489 Q351 434 342 364 L447 364 L447 358 L341 358 Q328 255 310 169 Q292 83 263.5 21.5 Q235 -40 193 -74.5 Q151 -109 90 -109 Q60 -109 35.5 -95.5 Q11 -82 11 -53 Q11 -34 24.5 -20 Q38 -6 60 -6 Q89 -6 108.5 -30 Q128 -54 125 -101 Q148 -96 162 -55.5 Q176 -15 186 48.5 Q196 112 205 192.5 Q214 273 228 358 L134 358 L134 364 L230 364 Z " />
<glyph glyph-name="quotedblbase" unicode="&#x201e;" horiz-adv-x="372" d="M316 37 Q316 17 308.5 -6 Q301 -29 288.5 -53 Q276 -77 258.5 -99 Q241 -121 221 -139 L216 -133 Q249 -103 274.5 -62 Q300 -21 305 17 Q295 7 281.5 3 Q268 -1 255 -1 Q230 -1 213 13 Q196 27 196 54 Q196 76 212 92.5 Q228 109 252 109 Q284 109 300 89 Q316 69 316 37 Z M171 37 Q171 17 163.5 -6 Q156 -29 143.5 -53 Q131 -77 113.5 -99 Q96 -121 76 -139 Q75 -138 73.5 -136 Q72 -134 72 -133 Q88 -118 103 -99.5 Q118 -81 130 -61.5 Q142 -42 150 -22 Q158 -2 161 17 Q150 7 136.5 3 Q123 -1 110 -1 Q85 -1 68 13 Q51 27 51 54 Q51 76 66.5 92.5 Q82 109 108 109 Q140 109 155.5 89 Q171 69 171 37 Z " />
<glyph glyph-name="ellipsis" unicode="&#x2026;" horiz-adv-x="655" d="M48 54 Q48 81 66 99 Q84 117 110 117 Q136 117 154.5 99 Q173 81 173 54 Q173 28 154.5 10 Q136 -8 110 -8 Q84 -8 66 10 Q48 28 48 54 Z M261 54 Q261 81 279 99 Q297 117 323 117 Q350 117 368 99 Q386 81 386 54 Q386 28 368 10 Q350 -8 323 -8 Q297 -8 279 10 Q261 28 261 54 Z M481 54 Q481 81 499.5 99 Q518 117 544 117 Q570 117 588.5 99 Q607 81 607 54 Q607 28 588.5 10 Q570 -8 544 -8 Q518 -8 499.5 10 Q481 28 481 54 Z " />
<glyph glyph-name="dagger" unicode="&#x2020;" horiz-adv-x="524" d="M264 514 Q268 463 283 406.5 Q298 350 315 298 Q291 180 278.5 66.5 Q266 -47 264 -163 L260 -163 Q260 -114 256 -55.5 Q252 3 245.5 64.5 Q239 126 229.5 186.5 Q220 247 209 298 Q224 349 237.5 403 Q251 457 260 514 Q245 506 223.5 497 Q202 488 180 479.5 Q158 471 138 465.5 Q118 460 107 460 Q84 460 66.5 472.5 Q49 485 49 515 Q49 544 66.5 557.5 Q84 571 108 571 Q119 571 137 566 Q155 561 176 553.5 Q197 546 218.5 537 Q240 528 259 519 Q250 542 240.5 566 Q231 590 224 612.5 Q217 635 212.5 653 Q208 671 208 682 Q208 708 221 726.5 Q234 745 264 745 Q296 745 306.5 726 Q317 707 317 685 Q317 673 310.5 649.5 Q304 626 295 600.5 Q286 575 277 552 Q268 529 264 519 Q282 527 303.5 536.5 Q325 546 346 553.5 Q367 561 385.5 566 Q404 571 415 571 Q438 571 455.5 557.5 Q473 544 473 515 Q473 486 455 473 Q437 460 416 460 Q401 460 382.5 465 Q364 470 343.5 477.5 Q323 485 302.5 495 Q282 505 264 514 Z " />
<glyph glyph-name="daggerdbl" unicode="&#x2021;" horiz-adv-x="524" d="M209 298 Q224 349 237.5 403 Q251 457 260 514 Q245 506 223.5 497 Q202 488 180 479.5 Q158 471 138 465.5 Q118 460 107 460 Q84 460 66.5 472.5 Q49 485 49 515 Q49 544 66.5 557.5 Q84 571 108 571 Q119 571 137 566 Q155 561 176 553.5 Q197 546 218.5 537 Q240 528 259 519 Q250 542 240.5 566 Q231 590 224 612.5 Q217 635 212.5 653 Q208 671 208 682 Q208 708 221 726.5 Q234 745 264 745 Q296 745 306.5 726 Q317 707 317 685 Q317 673 310.5 649.5 Q304 626 295 600.5 Q286 575 277 552 Q268 529 264 519 Q282 527 303.5 536.5 Q325 546 346 553.5 Q367 561 385.5 566 Q404 571 415 571 Q438 571 455.5 557.5 Q473 544 473 515 Q473 486 455 473 Q437 460 416 460 Q401 460 382.5 465 Q364 470 343.5 477.5 Q323 485 302.5 495 Q282 505 264 514 Q268 463 283 406.5 Q298 350 315 298 Q298 246 283 190 Q268 134 264 83 Q282 92 302.5 101.5 Q323 111 343.5 118.5 Q364 126 382.5 131 Q401 136 416 136 Q437 136 455 123 Q473 110 473 81 Q473 52 455.5 38.5 Q438 25 415 25 Q404 25 385.5 30 Q367 35 346 42.5 Q325 50 303.5 59.5 Q282 69 264 77 Q268 66 277 43.5 Q286 21 295 -4.5 Q304 -30 310.5 -53.5 Q317 -77 317 -89 Q317 -111 306.5 -129.5 Q296 -148 264 -148 Q234 -148 221 -129.5 Q208 -111 208 -86 Q208 -75 212.5 -56.5 Q217 -38 224 -16 Q231 6 240.5 30 Q250 54 259 77 Q240 68 218.5 59 Q197 50 176 42.5 Q155 35 137 30.5 Q119 26 108 26 Q84 26 66.5 39 Q49 52 49 81 Q49 111 66.5 123.5 Q84 136 107 136 Q118 136 138 130.5 Q158 125 180 116.5 Q202 108 223.5 99 Q245 90 260 83 Q251 140 237.5 193.5 Q224 247 209 298 Z " />
<glyph glyph-name="circumflex" unicode="&#x2c6;" horiz-adv-x="502" d="M250 599 L98 511 L95 514 L236 672 Q241 677 243.5 679.5 Q246 682 249 682 Q254 682 263 673 L401 514 L398 511 L250 599 Z " />
<glyph glyph-name="guilsinglleft" unicode="&#x2039;" horiz-adv-x="314" d="M137 208 L261 8 L257 5 L59 188 Q47 198 47 205 Q47 212 58 223 L256 408 L261 404 L137 208 Z " />
<glyph glyph-name="OE" unicode="&#x152;" horiz-adv-x="1076" d="M490 0 Q443 -11 394 -11 Q308 -11 243.5 17 Q179 45 135.5 92.5 Q92 140 70 202.5 Q48 265 48 335 Q48 405 72 468 Q96 531 141 579 Q186 627 250 655 Q314 683 394 683 Q402 683 410 683 Q418 683 426 682 L472 676 Q486 675 499 674.5 Q512 674 526 674 L791 674 Q849 674 898.5 682.5 Q948 691 983 714 Q991 650 997.5 586.5 Q1004 523 1011 459 L1009 459 Q1006 459 1004.5 462.5 Q1003 466 1001 472 Q968 569 913.5 619 Q859 669 768 669 L657 669 L657 356 L738 356 Q769 356 791.5 363.5 Q814 371 828.5 384.5 Q843 398 851.5 416 Q860 434 863 455 Q867 478 868 488 Q869 498 874 497 L874 203 Q869 201 867.5 211.5 Q866 222 863.5 238.5 Q861 255 855.5 274.5 Q850 294 836.5 311 Q823 328 801 339.5 Q779 351 743 351 L657 351 L657 98 Q657 53 678.5 28.5 Q700 4 750 4 L780 4 Q822 4 862 17 Q902 30 937.5 58 Q973 86 1003 131 Q1033 176 1056 241 Q1060 254 1067 254 L1012 -28 Q980 -14 933 -7 Q886 0 821 0 L490 0 Z M529 562 Q529 594 519 616.5 Q509 639 491 653 Q473 667 448.5 673 Q424 679 394 679 Q335 679 296 649.5 Q257 620 234 572 Q211 524 201 462 Q191 400 191 336 Q191 270 199.5 208 Q208 146 230.5 98 Q253 50 293.5 21.5 Q334 -7 398 -7 Q455 -7 492 19.5 Q529 46 529 112 L529 562 Z " />
<glyph glyph-name="quoteleft" unicode="&#x2018;" horiz-adv-x="227" d="M56 531 Q56 550 63 573.5 Q70 597 83 621 Q96 645 113.5 667.5 Q131 690 151 707 L156 702 Q123 672 97.5 630.5 Q72 589 67 551 Q77 561 90.5 565 Q104 569 117 569 Q142 569 159 555 Q176 541 176 514 Q176 492 160.5 475.5 Q145 459 120 459 Q88 459 72 479 Q56 499 56 531 Z " />
<glyph glyph-name="quoteright" unicode="&#x2019;" horiz-adv-x="235" d="M171 637 Q171 617 164 594 Q157 571 144.5 547 Q132 523 114.5 500.5 Q97 478 77 461 L72 466 Q88 481 103 499.5 Q118 518 130 538 Q142 558 150 578 Q158 598 161 617 Q150 607 137 603 Q124 599 111 599 Q86 599 69 613 Q52 627 52 654 Q52 676 67 692.5 Q82 709 108 709 Q140 709 155.5 689 Q171 669 171 637 Z " />
<glyph glyph-name="quotedblleft" unicode="&#x201c;" horiz-adv-x="364" d="M51 534 Q51 553 58 576.5 Q65 600 77.5 624 Q90 648 107.5 670.5 Q125 693 145 710 L150 705 Q134 690 119 671.5 Q104 653 92 633 Q80 613 72 593 Q64 573 61 554 Q72 564 85 568 Q98 572 111 572 Q136 572 153 558 Q170 544 170 517 Q170 495 155 478.5 Q140 462 114 462 Q82 462 66.5 482 Q51 502 51 534 Z M196 534 Q196 553 203 576.5 Q210 600 222.5 624 Q235 648 252.5 670.5 Q270 693 290 710 L295 705 Q279 690 264 671.5 Q249 653 237 633 Q225 613 217 593 Q209 573 206 554 Q216 564 229.5 568 Q243 572 256 572 Q281 572 298 558 Q315 544 315 517 Q315 495 299.5 478.5 Q284 462 259 462 Q227 462 211.5 482 Q196 502 196 534 Z " />
<glyph glyph-name="quotedblright" unicode="&#x201d;" horiz-adv-x="372" d="M318 631 Q318 611 310.5 587.5 Q303 564 290.5 540 Q278 516 260.5 494 Q243 472 223 454 L218 460 Q234 475 249 493.5 Q264 512 276 531.5 Q288 551 296 571.5 Q304 592 307 611 Q297 600 283.5 596 Q270 592 257 592 Q232 592 215 606.5 Q198 621 198 648 Q198 670 214 686.5 Q230 703 254 703 Q286 703 302 683 Q318 663 318 631 Z M173 631 Q173 611 165.5 587.5 Q158 564 145.5 540 Q133 516 115.5 494 Q98 472 78 454 Q77 455 75.5 457 Q74 459 74 460 Q106 490 131.5 531.5 Q157 573 163 611 Q152 600 138.5 596 Q125 592 112 592 Q87 592 70 606.5 Q53 621 53 648 Q53 670 68.5 686.5 Q84 703 110 703 Q142 703 157.5 683 Q173 663 173 631 Z " />
<glyph glyph-name="bullet" unicode="&#x2022;" horiz-adv-x="445" d="M365 236 Q365 206 354 180 Q343 154 323.5 134.5 Q304 115 278 104 Q252 93 222 93 Q192 93 166.5 104 Q141 115 121.5 134.5 Q102 154 91 180 Q80 206 80 236 Q80 266 91 292 Q102 318 121.5 337.5 Q141 357 166.5 368 Q192 379 222 379 Q252 379 278 368 Q304 357 323.5 337.5 Q343 318 354 292 Q365 266 365 236 Z " />
<glyph glyph-name="endash" unicode="&#x2013;" horiz-adv-x="543" d="M33 250 L33 268 L511 268 L511 250 L33 250 Z " />
<glyph glyph-name="emdash" unicode="&#x2014;" horiz-adv-x="840" d="M33 250 L33 268 L807 268 L807 250 L33 250 Z " />
<glyph glyph-name="tilde" unicode="&#x2dc;" horiz-adv-x="513" d="M412 650 Q407 606 382.5 574.5 Q358 543 316 543 Q299 543 279 548 Q259 553 237.5 558.5 Q216 564 195.5 569 Q175 574 159 574 Q140 574 124.5 567 Q109 560 98 531 L94 532 Q97 546 103.5 564 Q110 582 121.5 598 Q133 614 149.5 625 Q166 636 189 636 Q204 636 224 630.5 Q244 625 266 619 Q288 613 309.5 607.5 Q331 602 349 602 Q374 602 387 612.5 Q400 623 409 651 L412 650 Z " />
<glyph glyph-name="trademark" unicode="&#x2122;" horiz-adv-x="848" d="M23 564 Q26 594 29.5 624.5 Q33 655 37 685 Q77 677 115 675.5 Q153 674 192 674 Q228 674 267 675.5 Q306 677 341 685 Q345 655 348.5 624.5 Q352 594 355 564 Q349 564 348 572 Q340 601 330 620 Q320 639 306 650 Q292 661 273.5 665 Q255 669 231 669 L220 669 L220 415 Q220 384 231 371 Q242 358 255.5 353.5 Q269 349 280.5 349.5 Q292 350 292 347 L292 344 L86 344 L86 347 Q86 350 97 350 Q108 350 121.5 354.5 Q135 359 146.5 372 Q158 385 158 415 L158 669 L148 669 Q123 669 104.5 665 Q86 661 72 650 Q58 639 48 620.5 Q38 602 30 572 Q28 564 23 564 Z M688 643 L562 340 L549 358 L416 636 L407 400 Q406 376 415.5 366 Q425 356 436 353 Q447 350 457 350 Q467 350 467 346 L467 344 L341 344 L341 346 Q341 350 350 350 Q359 350 370.5 353.5 Q382 357 391.5 367 Q401 377 402 400 L410 622 Q411 643 403 652 Q395 661 385 664 Q375 667 367 667.5 Q359 668 359 672 L359 674 L468 674 L589 420 L695 674 L805 674 L805 672 Q805 668 796.5 668 Q788 668 777.5 666 Q767 664 758.5 656 Q750 648 750 627 Q750 571 753.5 515.5 Q757 460 759 403 Q760 379 769 368.5 Q778 358 788 354 Q798 350 806.5 350 Q815 350 815 346 L815 344 L645 344 L645 346 Q645 350 653.5 350.5 Q662 351 672 355.5 Q682 360 690.5 370.5 Q699 381 699 404 L688 643 Z " />
<glyph glyph-name="guilsinglright" unicode="&#x203a;" horiz-adv-x="314" d="M49 404 L54 408 L256 218 Q262 212 262 205 Q262 198 251 188 L53 5 L49 8 L173 208 L49 404 Z " />
<glyph glyph-name="oe" unicode="&#x153;" horiz-adv-x="877" d="M278 449 Q335 449 381 427.5 Q427 406 458 366 Q487 404 533.5 426.5 Q580 449 638 449 Q679 449 715.5 434 Q752 419 779.5 392.5 Q807 366 824 330 Q841 294 843 251 L839 247 L525 236 Q525 173 533 129 Q541 85 559 57 Q577 29 606 16 Q635 3 677 3 Q717 3 756 17.5 Q795 32 830 67 L833 64 Q799 29 753 9 Q707 -11 646 -11 Q517 -11 454 73 Q421 34 377 12 Q333 -10 274 -10 Q217 -10 173 8 Q129 26 99 57.5 Q69 89 53.5 131 Q38 173 38 220 Q38 268 54.5 309.5 Q71 351 102 382 Q133 413 177.5 431 Q222 449 278 449 Z M278 445 Q243 445 219.5 426.5 Q196 408 182.5 377.5 Q169 347 163.5 306.5 Q158 266 158 221 Q158 170 162.5 128 Q167 86 180 56 Q193 26 217 9.5 Q241 -7 280 -7 Q318 -7 341.5 10 Q365 27 378 57 Q391 87 395.5 128 Q400 169 400 217 Q400 269 394.5 311 Q389 353 375.5 383 Q362 413 338.5 429 Q315 445 278 445 Z M634 444 Q585 444 557.5 391.5 Q530 339 525 241 L730 248 L730 282 Q730 314 725 343 Q720 372 709 394.5 Q698 417 679.5 430.5 Q661 444 634 444 Z " />
<glyph glyph-name="exclamdown" unicode="&#xa1;" horiz-adv-x="296" d="M87 385 Q87 411 104.5 429 Q122 447 148 447 Q175 447 193 429 Q211 411 211 385 Q211 359 193 341 Q175 323 148 323 Q122 323 104.5 341 Q87 359 87 385 Z M152 266 L213 -177 Q215 -192 213 -207 Q211 -222 203.5 -235 Q196 -248 182 -256 Q168 -264 147 -264 Q125 -264 111 -255.5 Q97 -247 89.5 -234 Q82 -221 80 -206.5 Q78 -192 81 -180 L146 266 L152 266 Z " />
<glyph glyph-name="cent" unicode="&#xa2;" horiz-adv-x="554" d="M286 71 L276 -29 L269 -29 L279 72 Q182 80 128 138.5 Q74 197 74 294 Q74 345 91 389 Q108 433 140.5 464.5 Q173 496 218.5 514 Q264 532 321 532 L326 532 L336 633 L343 633 L332 532 Q374 530 401.5 520 Q429 510 444.5 495.5 Q460 481 466 464.5 Q472 448 472 434 Q472 412 458 395.5 Q444 379 421 379 Q390 379 376.5 399 Q363 419 363 445 Q363 465 369 484 Q375 503 386 518 Q363 526 335 526 L332 526 L288 92 Q309 85 337 85 Q370 85 406 94.5 Q442 104 477 130 L480 127 Q445 101 402.5 86 Q360 71 306 71 L286 71 Z M195 295 Q195 205 218 158.5 Q241 112 281 95 L325 526 Q260 521 227.5 459.5 Q195 398 195 295 Z " />
<glyph glyph-name="sterling" unicode="&#xa3;" horiz-adv-x="554" d="M315 85 Q360 85 392.5 87 Q425 89 449 99 Q473 109 490 131 Q507 153 522 192 Q524 197 526 201 Q528 205 531 205 L533 205 L484 -13 Q465 -10 433 -8 Q401 -6 349 -4 Q297 -2 220.5 -1 Q144 0 37 0 L37 4 Q109 49 140.5 96 Q172 143 172 191 Q172 222 157 255 Q142 288 122 330 L26 330 L26 335 L120 335 Q108 360 99 387 Q90 414 90 444 Q90 498 110 538 Q130 578 163.5 604.5 Q197 631 239.5 644 Q282 657 327 657 Q359 657 386.5 651 Q414 645 434.5 633 Q455 621 466.5 604 Q478 587 478 566 Q478 540 462.5 525.5 Q447 511 430 511 Q396 511 383 532.5 Q370 554 370 583 Q370 599 373.5 616 Q377 633 383 647 Q372 650 357.5 651.5 Q343 653 333 653 Q298 653 274 640.5 Q250 628 234.5 607.5 Q219 587 212 560 Q205 533 205 504 Q205 473 216.5 432.5 Q228 392 248 335 L430 335 L430 330 L250 330 Q258 306 262 289.5 Q266 273 266 258 Q266 210 236 168.5 Q206 127 143 85 L315 85 Z " />
<glyph glyph-name="currency" unicode="&#xa4;" horiz-adv-x="554" d="M108 477 L167 418 Q190 438 219.5 449 Q249 460 281 460 Q313 460 341 449.5 Q369 439 392 420 L449 477 Q453 472 460.5 465 Q468 458 473 453 Q469 449 461 441 Q453 433 444 424.5 Q435 416 427 408 Q419 400 416 396 Q436 373 447 343.5 Q458 314 458 282 Q458 250 446.5 221 Q435 192 415 167 L473 109 L449 85 L392 143 Q369 125 340.5 115 Q312 105 281 105 Q249 105 220 115.5 Q191 126 168 145 L108 86 L85 109 Q88 113 96.5 121 Q105 129 114 138.5 Q123 148 131.5 156.5 Q140 165 144 169 Q124 192 113.5 221 Q103 250 103 282 Q103 314 113.5 342.5 Q124 371 143 394 L85 453 L108 477 Z M134 282 Q134 252 145.5 225.5 Q157 199 177 178.5 Q197 158 224 146.5 Q251 135 281 135 Q311 135 337.5 146.5 Q364 158 384.5 178 Q405 198 416.5 225 Q428 252 428 282 Q428 312 416.5 339 Q405 366 384.5 386 Q364 406 337.5 417.5 Q311 429 281 429 Q251 429 224 417.5 Q197 406 177 386 Q157 366 145.5 339 Q134 312 134 282 Z " />
<glyph glyph-name="yen" unicode="&#xa5;" horiz-adv-x="554" d="M40 300 L40 304 L208 304 L69 580 Q53 612 35 626 Q17 640 1.5 645.5 Q-14 651 -23.5 651 Q-33 651 -33 655 L-33 657 L285 657 L285 655 Q285 652 271 651 Q257 650 240.5 645.5 Q224 641 210.5 631 Q197 621 197 601 Q197 593 203 581 L329 321 L434 546 Q442 563 444.5 577.5 Q447 592 447 597 Q447 620 433 630.5 Q419 641 402 645 Q385 649 371 650 Q357 651 357 656 L357 657 L588 657 Q588 651 573.5 650.5 Q559 650 536.5 642.5 Q514 635 487.5 614 Q461 593 439 545 L326 304 L510 304 L510 300 L40 300 Z M40 216 L40 220 L510 220 L510 216 L332 216 L332 118 Q332 84 340.5 63 Q349 42 361.5 30.5 Q374 19 389 14.5 Q404 10 416.5 8 Q429 6 437.5 5.5 Q446 5 446 1 L446 0 L98 0 L98 1 Q98 5 106.5 5.5 Q115 6 127.5 8 Q140 10 155 14.5 Q170 19 182.5 30.5 Q195 42 203.5 63 Q212 84 212 118 L212 216 L40 216 Z " />
<glyph glyph-name="brokenbar" unicode="&#xa6;" horiz-adv-x="318" d="M154 388 L154 744 L165 744 L165 388 L154 388 Z M165 272 L165 -141 L154 -141 L154 272 L165 272 Z " />
<glyph glyph-name="section" unicode="&#xa7;" horiz-adv-x="554" d="M157 630 Q155 630 155 631 Q126 605 112.5 578.5 Q99 552 99 523 Q99 494 111 464 Q123 434 144 403 Q165 372 192.5 339 Q220 306 251 272 L293 225 Q340 173 371 120 Q402 67 403 10 Q403 -10 396.5 -28.5 Q390 -47 374 -64 Q374 -65 374.5 -65.5 Q375 -66 375 -67 Q422 -42 441 -8 Q460 26 460 65 Q460 98 445 134.5 Q430 171 406 207 Q382 243 352.5 277 Q323 311 293 341 Q270 363 244 391.5 Q218 420 196 451 Q174 482 159 514.5 Q144 547 144 579 Q144 590 147 604 Q150 618 157 630 Z M221 -109 Q194 -109 169.5 -103 Q145 -97 126.5 -85 Q108 -73 96.5 -55 Q85 -37 85 -13 Q85 13 102 27.5 Q119 42 138 42 Q174 42 190 19 Q206 -4 206 -35 Q206 -51 202.5 -69 Q199 -87 192 -102 Q200 -104 207 -104 Q214 -104 221 -104 Q240 -104 258 -98.5 Q276 -93 290 -82 Q304 -71 313 -54.5 Q322 -38 322 -16 Q322 14 302.5 46 Q283 78 253 111.5 Q223 145 189 181 Q155 217 125 255.5 Q95 294 75.5 335 Q56 376 56 421 Q56 476 74.5 525.5 Q93 575 128 612 Q163 649 214.5 670.5 Q266 692 332 692 Q358 692 383 686 Q408 680 428 667.5 Q448 655 460.5 636.5 Q473 618 473 593 Q473 567 458 553 Q443 539 423 539 Q392 539 374 562.5 Q356 586 356 616 Q356 630 359 649.5 Q362 669 370 683 Q354 687 332 687 Q287 687 261.5 662.5 Q236 638 236 596 Q236 561 256.5 531.5 Q277 502 307 472.5 Q337 443 373 411.5 Q409 380 439 343 Q469 306 489.5 260.5 Q510 215 510 157 Q510 110 492.5 62.5 Q475 15 439 -23 Q403 -61 348.5 -85 Q294 -109 221 -109 Z " />
<glyph glyph-name="dieresis" unicode="&#xa8;" horiz-adv-x="502" d="M158 650 Q181 650 197.5 633.5 Q214 617 214 594 Q214 571 197.5 555 Q181 539 158 539 Q135 539 118.5 555 Q102 571 102 594 Q102 617 118.5 633.5 Q135 650 158 650 Z M343 650 Q366 650 382 633.5 Q398 617 398 594 Q398 571 382 555 Q366 539 343 539 Q319 539 303 555 Q287 571 287 594 Q287 617 303 633.5 Q319 650 343 650 Z " />
<glyph glyph-name="copyright" unicode="&#xa9;" horiz-adv-x="830" d="M430 113 Q470 113 498 124 Q526 135 544.5 154 Q563 173 573.5 199 Q584 225 589 255 Q593 277 595.5 285 Q598 293 601 293 L603 293 L603 108 L601 108 Q590 129 574.5 131.5 Q559 134 537.5 128 Q516 122 487.5 114 Q459 106 422 106 Q365 106 320.5 124 Q276 142 244.5 173.5 Q213 205 196.5 247.5 Q180 290 180 340 Q180 390 197 434.5 Q214 479 246.5 512 Q279 545 324.5 564 Q370 583 427 583 Q459 583 484.5 575.5 Q510 568 529.5 563.5 Q549 559 563 561.5 Q577 564 587 585 L588 585 L588 419 L587 419 Q582 419 580.5 425 Q579 431 574 448 Q569 467 559 490 Q549 513 532.5 532 Q516 551 491.5 564 Q467 577 431 577 Q388 577 359.5 558.5 Q331 540 313.5 507.5 Q296 475 288.5 431.5 Q281 388 281 338 Q281 231 315.5 172 Q350 113 430 113 Z M416 6 Q491 6 554.5 33 Q618 60 664.5 106.5 Q711 153 737.5 215.5 Q764 278 764 349 Q764 420 737.5 482.5 Q711 545 664.5 591.5 Q618 638 554.5 665 Q491 692 416 692 Q341 692 277.5 665 Q214 638 167.5 591.5 Q121 545 95 482.5 Q69 420 69 349 Q69 278 93.5 215.5 Q118 153 163 106.5 Q208 60 272 33 Q336 6 416 6 Z M416 -8 Q332 -8 264.5 20 Q197 48 150 96 Q103 144 77.5 209 Q52 274 52 349 Q52 423 79.5 488 Q107 553 155.5 601 Q204 649 271 677 Q338 705 416 705 Q494 705 561 677 Q628 649 676.5 601 Q725 553 752.5 488 Q780 423 780 349 Q780 274 752.5 209 Q725 144 676.5 96 Q628 48 561 20 Q494 -8 416 -8 Z " />
<glyph glyph-name="ordfeminine" unicode="&#xaa;" horiz-adv-x="351" d="M170 594 Q206 594 230 585.5 Q254 577 268 562.5 Q282 548 288.5 530 Q295 512 296 493 L296 344 Q296 326 301.5 317.5 Q307 309 322 309 Q326 309 328.5 309 Q331 309 336 311 Q336 310 336.5 309 Q337 308 337 307 Q327 302 311.5 297 Q296 292 280 292 Q270 292 259.5 293.5 Q249 295 240 299.5 Q231 304 224 312.5 Q217 321 214 334 Q189 309 164 300.5 Q139 292 111 292 Q74 292 46.5 309 Q19 326 19 364 Q19 394 34 413.5 Q49 433 72 445 Q95 457 123.5 462 Q152 467 179 467 Q188 467 197 466.5 Q206 466 214 465 L214 515 Q214 528 212 541.5 Q210 555 203.5 565.5 Q197 576 185.5 582.5 Q174 589 155 589 Q140 589 127.5 586 Q115 583 106 579 Q114 572 120.5 560 Q127 548 127 536 Q127 517 117.5 500.5 Q108 484 82 484 Q65 484 56.5 494 Q48 504 48 519 Q48 529 53.5 542 Q59 555 72.5 566.5 Q86 578 110 586 Q134 594 170 594 Z M146 307 Q166 307 184.5 317 Q203 327 214 341 L214 461 Q157 461 130 438 Q103 415 103 370 Q103 340 114.5 323.5 Q126 307 146 307 Z " />
<glyph glyph-name="guillemotleft" unicode="&#xab;" horiz-adv-x="462" d="M289 208 L412 8 L408 5 L210 188 Q199 197 199 205 Q199 212 209 223 L408 408 L412 404 L289 208 Z M137 208 L261 8 L257 5 L59 188 Q47 198 47 205 Q47 212 58 223 L256 408 L261 404 L137 208 Z " />
<glyph glyph-name="logicalnot" unicode="&#xac;" horiz-adv-x="554" d="M76 304 L493 304 L493 86 L478 86 L478 289 L76 289 L76 304 Z " />
<glyph glyph-name="sfthyphen" unicode="&#xad;" horiz-adv-x="311" d="M32 235 L32 260 L279 260 L279 235 L32 235 Z " />
<glyph glyph-name="registered" unicode="&#xae;" horiz-adv-x="714" d="M293 201 Q235 201 188.5 220.5 Q142 240 109.5 273 Q77 306 59.5 350.5 Q42 395 42 446 Q42 498 61 543 Q80 588 113.5 621.5 Q147 655 193 674.5 Q239 694 293 694 Q348 694 394 674.5 Q440 655 474 621.5 Q508 588 527 543 Q546 498 546 446 Q546 395 527 350.5 Q508 306 474 273 Q440 240 394 220.5 Q348 201 293 201 Z M293 212 Q346 212 390 230.5 Q434 249 466 280.5 Q498 312 516 354.5 Q534 397 534 446 Q534 495 516 538.5 Q498 582 465.5 614 Q433 646 389 664.5 Q345 683 293 683 Q241 683 197.5 665 Q154 647 122.5 615 Q91 583 73 539.5 Q55 496 55 446 Q55 396 72 353.5 Q89 311 120 279.5 Q151 248 195 230 Q239 212 293 212 Z M268 452 Q280 441 301.5 437.5 Q323 434 339 435 L408 345 Q415 335 423.5 330.5 Q432 326 438.5 324.5 Q445 323 449.5 322.5 Q454 322 454 319 L454 317 L366 317 L263 452 L257 452 L257 354 Q257 339 263 333 Q269 327 276.5 324.5 Q284 322 290.5 322 Q297 322 297 319 L297 317 L163 317 L163 319 Q163 322 169 322 Q175 322 182.5 324 Q190 326 196.5 332.5 Q203 339 203 354 L203 559 Q203 575 196.5 581 Q190 587 182.5 589 Q175 591 169 591.5 Q163 592 163 595 L163 597 L284 597 Q339 597 372.5 580 Q406 563 406 523 Q406 492 376 472 Q346 452 288 452 L268 452 Z M257 456 L271 456 Q306 456 326.5 476 Q347 496 347 524 Q347 557 324 574.5 Q301 592 272 592 L257 592 L257 456 Z " />
<glyph glyph-name="macron" unicode="&#xaf;" horiz-adv-x="507" d="M393 552 Q364 555 329.5 556 Q295 557 258 557 Q221 557 183.5 555.5 Q146 554 110 552 L110 597 Q141 602 177.5 605 Q214 608 251.5 609.5 Q289 611 325.5 611.5 Q362 612 394 613 L393 552 Z " />
<glyph glyph-name="degree" unicode="&#xb0;" horiz-adv-x="325" d="M76 576 Q76 540 100.5 514 Q125 488 167 488 Q206 488 230.5 514 Q255 540 255 576 Q255 593 248.5 609.5 Q242 626 230 638.5 Q218 651 202 658.5 Q186 666 167 666 Q125 666 100.5 639 Q76 612 76 576 Z M50 576 Q50 600 59 620.5 Q68 641 83.5 656.5 Q99 672 120.5 681 Q142 690 167 690 Q191 690 211.5 681 Q232 672 247.5 656.5 Q263 641 272 620.5 Q281 600 281 576 Q281 552 272 531.5 Q263 511 247.5 496 Q232 481 211.5 472 Q191 463 167 463 Q142 463 120.5 472 Q99 481 83.5 496.5 Q68 512 59 532.5 Q50 553 50 576 Z " />
<glyph glyph-name="plusminus" unicode="&#xb1;" horiz-adv-x="554" d="M73 309 L272 309 L272 502 L293 502 L293 309 L489 309 L489 288 L293 288 L293 90 L272 90 L272 288 L73 288 L73 309 Z M489 31 L489 12 L73 12 L73 31 L489 31 Z " />
<glyph glyph-name="acute" unicode="&#xb4;" horiz-adv-x="502" d="M181 511 Q181 512 180.5 512.5 Q180 513 180 514 Q226 545 248 576 Q270 607 282 631.5 Q294 656 304 671.5 Q314 687 336 687 Q357 687 366.5 673.5 Q376 660 376 646 Q376 635 364.5 617.5 Q353 600 329 581 Q305 562 268 543 Q231 524 181 511 Z " />
<glyph glyph-name="&amp;#xb5;" unicode="&#xb5;" horiz-adv-x="563" d="M201 80 Q201 45 216 24.5 Q231 4 265 4 Q293 4 322.5 23 Q352 42 368 68 L368 353 Q368 385 354.5 399 Q341 413 325.5 417.5 Q310 422 296.5 421.5 Q283 421 283 426 L283 428 L477 448 L480 446 L480 85 Q480 52 492 38 Q504 24 518 19.5 Q532 15 544 15 Q556 15 556 11 L556 9 Q510 4 464 -0.5 Q418 -5 371 -10 L369 -8 L375 66 Q375 66 373 67 Q344 25 304 7 Q264 -11 222 -11 Q217 -11 211.5 -10.5 Q206 -10 201 -9 L201 -142 Q201 -171 214 -184 Q227 -197 242 -202 Q257 -207 270 -208 Q283 -209 283 -213 L283 -215 L16 -215 L16 -213 Q16 -209 27.5 -208.5 Q39 -208 53 -202.5 Q67 -197 78.5 -182 Q90 -167 90 -134 L90 353 Q90 385 77 399 Q64 413 48 417.5 Q32 422 19 421.5 Q6 421 6 426 L6 428 L199 448 L201 446 L201 80 Z " />
<glyph glyph-name="&amp;#x3bc;" unicode="&#x3bc;" horiz-adv-x="563" d="M201 80 Q201 45 216 24.5 Q231 4 265 4 Q293 4 322.5 23 Q352 42 368 68 L368 353 Q368 385 354.5 399 Q341 413 325.5 417.5 Q310 422 296.5 421.5 Q283 421 283 426 L283 428 L477 448 L480 446 L480 85 Q480 52 492 38 Q504 24 518 19.5 Q532 15 544 15 Q556 15 556 11 L556 9 Q510 4 464 -0.5 Q418 -5 371 -10 L369 -8 L375 66 Q375 66 373 67 Q344 25 304 7 Q264 -11 222 -11 Q217 -11 211.5 -10.5 Q206 -10 201 -9 L201 -142 Q201 -171 214 -184 Q227 -197 242 -202 Q257 -207 270 -208 Q283 -209 283 -213 L283 -215 L16 -215 L16 -213 Q16 -209 27.5 -208.5 Q39 -208 53 -202.5 Q67 -197 78.5 -182 Q90 -167 90 -134 L90 353 Q90 385 77 399 Q64 413 48 417.5 Q32 422 19 421.5 Q6 421 6 426 L6 428 L199 448 L201 446 L201 80 Z " />
<glyph glyph-name="paragraph" unicode="&#xb6;" horiz-adv-x="652" d="M51 486 Q51 525 65.5 559 Q80 593 106.5 618.5 Q133 644 170 659 Q207 674 251 674 L622 674 L622 672 Q622 667 603.5 667 Q585 667 562.5 660.5 Q540 654 521.5 636 Q503 618 503 577 L503 111 Q503 45 486 -10.5 Q469 -66 432.5 -105.5 Q396 -145 339 -167.5 Q282 -190 203 -190 Q175 -190 150.5 -183.5 Q126 -177 107.5 -165 Q89 -153 78.5 -134.5 Q68 -116 68 -92 Q68 -65 85.5 -49.5 Q103 -34 121 -34 Q154 -34 170 -57 Q186 -80 186 -110 Q186 -149 166 -181 Q179 -184 190 -184 Q226 -184 247.5 -169 Q269 -154 280.5 -130.5 Q292 -107 295 -78 Q298 -49 298 -21 L298 295 L251 295 Q206 295 169.5 310 Q133 325 106.5 350.5 Q80 376 65.5 411 Q51 446 51 486 Z M371 14 Q371 -18 365.5 -48 Q360 -78 346.5 -103 Q333 -128 311 -147.5 Q289 -167 255 -179 L255 -181 Q308 -175 342 -154.5 Q376 -134 395.5 -104.5 Q415 -75 422.5 -39 Q430 -3 430 35 L430 669 L371 669 L371 14 Z " />
<glyph glyph-name="periodcentered" unicode="&#xb7;" horiz-adv-x="253" d="M64 258 Q64 284 82 302.5 Q100 321 126 321 Q152 321 170.5 302.5 Q189 284 189 258 Q189 232 170.5 214 Q152 196 126 196 Q100 196 82 214 Q64 232 64 258 Z " />
<glyph glyph-name="cedilla" unicode="&#xb8;" horiz-adv-x="458" d="M214 -66 L232 -66 Q263 -66 289.5 -71.5 Q316 -77 335.5 -87.5 Q355 -98 366.5 -114.5 Q378 -131 378 -152 Q378 -170 367.5 -187.5 Q357 -205 336 -218.5 Q315 -232 283 -240 Q251 -248 208 -248 Q197 -248 186 -248 Q175 -248 162 -246 L162 -242 Q189 -242 213 -237.5 Q237 -233 255.5 -223 Q274 -213 284.5 -197.5 Q295 -182 295 -160 Q295 -136 272.5 -115 Q250 -94 199 -93 L232 -2 Q233 -2 234 -2.5 Q235 -3 236 -3 L214 -66 Z " />
<glyph glyph-name="ordmasculine" unicode="&#xba;" horiz-adv-x="382" d="M23 444 Q23 472 34 499 Q45 526 66 547 Q87 568 118 581 Q149 594 190 594 Q232 594 263.5 581.5 Q295 569 315.5 548.5 Q336 528 346.5 501 Q357 474 357 445 Q357 416 346 388.5 Q335 361 313.5 339.5 Q292 318 260.5 305 Q229 292 189 292 Q147 292 115.5 305 Q84 318 63.5 339 Q43 360 33 387.5 Q23 415 23 444 Z M113 445 Q113 416 116.5 389.5 Q120 363 128.5 342 Q137 321 152 308.5 Q167 296 191 296 Q213 296 228 308.5 Q243 321 252 341.5 Q261 362 264.5 388 Q268 414 268 442 Q268 472 264.5 499 Q261 526 252 546.5 Q243 567 228 579 Q213 591 190 591 Q168 591 153 577.5 Q138 564 129 543 Q120 522 116.5 496 Q113 470 113 445 Z " />
<glyph glyph-name="guillemotright" unicode="&#xbb;" horiz-adv-x="462" d="M51 404 L56 408 L258 218 Q264 212 264 205 Q264 198 253 188 L55 5 L51 8 L175 208 L51 404 Z M203 404 L207 408 L406 223 Q413 217 414.5 213 Q416 209 416 205 Q416 199 405 188 L207 5 L203 8 L326 208 L203 404 Z " />
<glyph glyph-name="questiondown" unicode="&#xbf;" horiz-adv-x="524" d="M276 -259 Q239 -259 203 -253 Q167 -247 138.5 -232 Q110 -217 92 -192.5 Q74 -168 74 -132 Q74 -101 93.5 -71.5 Q113 -42 141.5 -14 Q170 14 204 41 Q238 68 266.5 94 Q295 120 314.5 144.5 Q334 169 334 192 Q334 212 319.5 230.5 Q305 249 270 265 L271 268 Q340 251 382 214.5 Q424 178 424 130 Q424 105 407 80.5 Q390 56 365 31 Q340 6 310 -18.5 Q280 -43 255 -68 Q230 -93 213 -119 Q196 -145 196 -171 Q196 -194 204.5 -210 Q213 -226 227.5 -236 Q242 -246 260.5 -250 Q279 -254 300 -254 Q317 -254 335.5 -251 Q354 -248 368 -243 Q360 -229 355.5 -209.5 Q351 -190 351 -173 Q351 -141 367.5 -116 Q384 -91 419 -91 Q439 -91 454 -104.5 Q469 -118 469 -145 Q469 -196 418 -227.5 Q367 -259 276 -259 Z M360 388 Q360 361 342.5 343 Q325 325 299 325 Q273 325 254.5 343 Q236 361 236 388 Q236 414 254.5 431.5 Q273 449 299 449 Q325 449 342.5 431.5 Q360 414 360 388 Z " />
<glyph glyph-name="multiply" unicode="&#xd7;" horiz-adv-x="554" d="M124 440 L267 298 L408 438 L418 428 L277 287 L418 146 L408 136 L267 276 L124 134 L113 144 L256 287 L113 430 L124 440 Z " />
<glyph glyph-name="Circumflex" unicode="&#xf6c0;" horiz-adv-x="694" d="M335 812 L183 739 L180 742 L321 884 Q328 891 333 891 Q335 891 340 889 Q345 887 347 884 Q382 849 416.5 813 Q451 777 486 742 L483 739 L335 812 Z " />
<glyph glyph-name="commaaccent" unicode="&#xf6c3;" horiz-adv-x="737" d="M441 -114 Q441 -133 434.5 -154.5 Q428 -176 416 -198 Q404 -220 388 -241 Q372 -262 353 -279 Q350 -276 350 -275 Q381 -246 404.5 -209 Q428 -172 433 -134 Q423 -144 409.5 -147 Q396 -150 384 -150 Q360 -150 343.5 -137 Q327 -124 327 -98 Q327 -77 342.5 -61 Q358 -45 381 -45 Q411 -45 426 -64.5 Q441 -84 441 -114 Z " />
<glyph glyph-name="Acute" unicode="&#xf6c9;" horiz-adv-x="694" d="M255 737 Q254 737 254 738 L254 740 Q300 759 327 783 Q354 807 371 828.5 Q388 850 401 864.5 Q414 879 433 879 Q453 879 463.5 865.5 Q474 852 474 838 Q474 828 461.5 812.5 Q449 797 422 781 Q395 765 353.5 752.5 Q312 740 255 737 Z " />
<glyph glyph-name="Caron" unicode="&#xf6ca;" horiz-adv-x="780" d="M386 809 Q424 827 461 846 Q498 865 535 883 L538 880 L399 737 Q391 729 387 729 Q382 729 373 738 Q335 777 300.5 811 Q266 845 231 879 L235 883 L386 809 L386 809 Z " />
<glyph glyph-name="Dieresis" unicode="&#xf6cb;" horiz-adv-x="694" d="M248 849 Q271 849 287.5 833 Q304 817 304 794 Q304 771 287.5 754.5 Q271 738 248 738 Q225 738 208.5 754.5 Q192 771 192 794 Q192 817 208.5 833 Q225 849 248 849 Z M433 849 Q456 849 472 833 Q488 817 488 794 Q488 771 472 754.5 Q456 738 433 738 Q409 738 393 754.5 Q377 771 377 794 Q377 817 393 833 Q409 849 433 849 Z " />
<glyph glyph-name="Grave" unicode="&#xf6ce;" horiz-adv-x="694" d="M406 743 Q406 742 405.5 742 Q405 742 405 741 L405 740 Q348 743 306.5 755.5 Q265 768 238 784 Q211 800 198.5 815.5 Q186 831 186 841 Q186 855 196.5 868.5 Q207 882 227 882 Q246 882 259 867.5 Q272 853 289 831.5 Q306 810 332.5 786 Q359 762 406 743 Z " />
<glyph glyph-name="Hungarumlaut" unicode="&#xf6cf;" horiz-adv-x="769" d="M239 736 Q238 736 238 737 L238 739 Q284 758 311 782 Q338 806 355 827.5 Q372 849 385 863.5 Q398 878 417 878 Q437 878 447.5 864.5 Q458 851 458 837 Q458 827 445.5 811.5 Q433 796 406 780 Q379 764 337.5 751.5 Q296 739 239 736 Z M406 736 Q405 736 405 737 L405 739 Q451 758 478 782 Q505 806 522 827.5 Q539 849 552 863.5 Q565 878 584 878 Q604 878 614.5 864.5 Q625 851 625 837 Q625 827 612.5 811.5 Q600 796 573.5 780 Q547 764 505.5 751.5 Q464 739 406 736 Z " />
<glyph glyph-name="Macron" unicode="&#xf6d0;" horiz-adv-x="795" d="M527 756 Q473 761 401 761 Q329 761 261 756 L267 802 Q297 807 331 810 Q365 813 400.5 814.5 Q436 816 470.5 816.5 Q505 817 535 818 L527 756 Z " />
<glyph glyph-name="cyrBreve" unicode="&#xf6d1;" horiz-adv-x="707" d="M324 740 Q277 740 255 764 Q233 788 233 817 Q233 840 247.5 854 Q262 868 284 868 Q312 868 324.5 846.5 Q337 825 337 799 Q337 770 323 748 Q380 748 436.5 773.5 Q493 799 530 848 L533 845 Q508 812 478.5 791.5 Q449 771 420.5 759.5 Q392 748 366.5 744 Q341 740 324 740 Z " />
<glyph glyph-name="cyrbreve" unicode="&#xf6d4;" horiz-adv-x="502" d="M200 542 Q154 542 132.5 565.5 Q111 589 111 617 Q111 638 125.5 652 Q140 666 160 666 Q187 666 199 645 Q211 624 211 599 Q211 585 208 572 Q205 559 198 550 Q200 550 201.5 549.5 Q203 549 205 549 Q257 549 309.5 574 Q362 599 397 645 L400 643 Q376 611 348 591.5 Q320 572 292.5 561 Q265 550 240.5 546 Q216 542 200 542 Z " />
<glyph glyph-name="ff" unicode="&#xfb00;" horiz-adv-x="613" d="M206 76 Q206 46 217 32 Q228 18 240.5 12.5 Q253 7 264 6.5 Q275 6 275 2 L275 0 L12 0 L12 2 Q12 6 25 6 Q38 6 54 11.5 Q70 17 83 32.5 Q96 48 96 81 L96 431 L27 431 L27 436 L96 436 Q96 500 114.5 549.5 Q133 599 165.5 633.5 Q198 668 243.5 686 Q289 704 343 704 Q377 704 404 692 Q431 680 438 653 Q464 688 501.5 713.5 Q539 739 590 739 Q619 739 642.5 724 Q666 709 666 679 Q666 661 652 644 Q638 627 610 627 Q577 627 559 652 Q541 677 541 712 Q541 722 542 727 Q516 718 505.5 701 Q495 684 495 655 L495 436 L604 436 L604 431 L495 431 L495 76 Q495 46 507.5 32 Q520 18 535 12.5 Q550 7 562.5 6.5 Q575 6 575 2 L575 0 L312 0 L312 2 Q312 6 323 6.5 Q334 7 347.5 12.5 Q361 18 372 33 Q383 48 383 81 L383 431 L206 431 L206 76 Z M383 447 Q383 485 388 522.5 Q393 560 404 590 Q374 590 349.5 609 Q325 628 325 670 Q325 682 330 699 Q276 697 241 668.5 Q206 640 206 574 L206 436 L383 436 L383 447 Z " />
<glyph glyph-name="f_i" unicode="&#xfb01;" horiz-adv-x="610" d="M499 76 Q499 46 511.5 32 Q524 18 539 12.5 Q554 7 566.5 6.5 Q579 6 579 2 L579 0 L316 0 L316 2 Q316 6 327.5 6 Q339 6 352.5 11.5 Q366 17 377.5 32.5 Q389 48 389 81 L389 369 Q389 405 370 418 Q351 431 313 431 L207 431 L207 76 Q207 45 217.5 31 Q228 17 241 12 Q254 7 264.5 6.5 Q275 6 275 2 L275 0 L11 0 L11 2 Q11 6 24.5 6 Q38 6 53.5 11.5 Q69 17 82.5 32.5 Q96 48 96 81 L96 431 L28 431 L28 436 L96 436 Q96 505 115.5 560.5 Q135 616 169 654.5 Q203 693 250 713.5 Q297 734 351 734 Q373 734 392.5 730 Q412 726 427 717.5 Q442 709 450.5 696 Q459 683 459 665 Q459 644 444 630 Q429 616 403 616 Q390 616 377.5 621.5 Q365 627 354.5 637.5 Q344 648 337.5 664 Q331 680 331 701 Q331 706 331.5 714.5 Q332 723 334 728 Q277 725 242 688 Q207 651 207 576 L207 436 L301 436 Q324 436 350.5 437 Q377 438 403 439.5 Q429 441 453.5 443 Q478 445 497 448 L499 446 L499 76 Z " />
<glyph glyph-name="f_l" unicode="&#xfb02;" horiz-adv-x="606" d="M27 431 L27 436 L96 436 Q96 500 113.5 553.5 Q131 607 164 645.5 Q197 684 243.5 705.5 Q290 727 347 727 Q352 727 357.5 726.5 Q363 726 368 725 L496 740 L499 738 L499 76 Q499 46 511.5 32 Q524 18 539 12.5 Q554 7 566.5 6.5 Q579 6 579 2 L579 0 L316 0 L316 2 Q316 6 327 6 Q338 6 351.5 11.5 Q365 17 376.5 32.5 Q388 48 388 81 L388 648 Q388 669 382.5 682.5 Q377 696 368 704.5 Q359 713 347 716.5 Q335 720 322 720 Q298 720 277.5 711 Q257 702 241 684 Q225 666 216 639 Q207 612 207 576 L207 436 L313 436 L313 431 L207 431 L207 76 Q207 45 218 31 Q229 17 242.5 12 Q256 7 267.5 6.5 Q279 6 279 2 L279 0 L11 0 L11 2 Q11 6 24.5 6 Q38 6 53.5 11.5 Q69 17 82.5 32 Q96 47 96 81 L96 431 L27 431 Z " />
<glyph glyph-name="ffi" unicode="&#xfb03;" horiz-adv-x="893" d="M207 76 Q207 46 218 32 Q229 18 241.5 12.5 Q254 7 265 6.5 Q276 6 276 2 L276 0 L12 0 L12 2 Q12 6 25 6 Q38 6 54 11.5 Q70 17 83 32.5 Q96 48 96 81 L96 431 L28 431 L28 436 L96 436 Q96 497 114 547.5 Q132 598 166 634.5 Q200 671 249 691 Q298 711 359 711 Q369 711 385.5 709 Q402 707 418 701.5 Q434 696 447.5 686 Q461 676 465 659 Q500 697 546.5 715.5 Q593 734 647 734 Q666 734 684.5 730.5 Q703 727 717.5 719 Q732 711 741 698.5 Q750 686 750 668 Q750 646 734 631.5 Q718 617 692 617 Q680 617 667 621.5 Q654 626 643 636.5 Q632 647 625 663.5 Q618 680 618 703 Q618 713 623 728 Q565 723 530.5 687 Q496 651 496 576 L496 436 L609 436 Q654 436 700.5 440 Q747 444 781 448 L783 446 L783 76 Q783 46 795.5 32 Q808 18 822.5 12.5 Q837 7 849.5 6.5 Q862 6 862 2 L862 0 L599 0 L599 2 Q599 6 610.5 6 Q622 6 635.5 11.5 Q649 17 660.5 32.5 Q672 48 672 81 L672 369 Q672 405 653.5 418 Q635 431 596 431 L496 431 L496 76 Q496 45 507.5 31 Q519 17 532.5 12 Q546 7 557.5 6.5 Q569 6 569 2 L569 0 L307 0 L307 2 Q307 6 319 6 Q331 6 346 11.5 Q361 17 373 32.5 Q385 48 385 81 L385 431 L207 431 L207 76 Z M207 436 L386 436 Q386 482 394.5 520.5 Q403 559 418 590 Q384 594 367.5 615 Q351 636 351 670 Q351 688 357 706 Q276 704 241.5 668.5 Q207 633 207 556 L207 436 Z " />
<glyph glyph-name="ffl" unicode="&#xfb04;" horiz-adv-x="892" d="M206 76 Q206 46 217 32 Q228 18 240.5 12.5 Q253 7 264 6.5 Q275 6 275 2 L275 0 L12 0 L12 2 Q12 6 25 6 Q38 6 54 11.5 Q70 17 83 32.5 Q96 48 96 81 L96 431 L27 431 L27 436 L96 436 Q96 497 114 547.5 Q132 598 166 634.5 Q200 671 249 691 Q298 711 359 711 Q371 711 387 709 Q403 707 418.5 701.5 Q434 696 447 686.5 Q460 677 465 662 Q498 691 534 708.5 Q570 726 621 726 Q629 726 637 726.5 Q645 727 654 725 L782 740 L785 737 L785 76 Q785 46 797.5 32 Q810 18 824.5 12.5 Q839 7 851.5 6.5 Q864 6 864 2 L864 0 L601 0 L601 2 Q601 6 612 6 Q623 6 636.5 11.5 Q650 17 661.5 32.5 Q673 48 673 81 L673 644 Q673 686 654 703.5 Q635 721 608 721 Q547 721 519.5 677 Q492 633 492 538 L492 436 L600 436 L600 431 L492 431 L492 76 Q492 45 503 31 Q514 17 527.5 12 Q541 7 552.5 6.5 Q564 6 564 2 L564 0 L301 0 L301 2 Q301 6 313.5 6 Q326 6 341 11.5 Q356 17 368.5 32 Q381 47 381 81 L381 431 L206 431 L206 76 Z M381 436 Q381 476 388.5 515 Q396 554 415 590 Q352 602 352 668 Q352 676 353.5 686.5 Q355 697 357 706 Q277 705 241.5 669 Q206 633 206 556 L206 436 L381 436 Z " />
<glyph glyph-name="longs_t" unicode="&#xfb05;" horiz-adv-x="632" d="M23 431 L23 436 L92 436 Q92 505 112 560.5 Q132 616 166.5 654.5 Q201 693 246 713.5 Q291 734 342 734 Q360 734 377.5 731 Q395 728 409 720.5 Q423 713 432 701 Q441 689 441 671 Q441 650 425.5 635.5 Q410 621 384 621 Q373 621 361 626 Q349 631 339 641 Q329 651 322.5 666 Q316 681 316 701 Q316 713 321 728 Q268 726 235 690 Q202 654 202 587 L202 76 Q202 45 214 31 Q226 17 241 12 Q256 7 268 6.5 Q280 6 280 2 L280 0 L6 0 L6 2 Q6 6 19.5 6 Q33 6 48.5 11.5 Q64 17 77.5 32.5 Q91 48 91 81 L91 431 L23 431 Z M625 30 Q584 4 547.5 -3.5 Q511 -11 488 -11 Q453 -11 430.5 -3 Q408 5 395.5 19 Q383 33 378.5 53 Q374 73 374 96 L374 431 L311 431 L311 436 L375 436 Q423 453 449.5 490.5 Q476 528 483 580 L486 580 L486 436 L616 436 L616 431 L486 431 L486 69 Q486 38 497 21 Q508 4 539 4 Q553 4 574.5 10.5 Q596 17 623 33 L625 30 Z " />
<glyph glyph-name="f_t" unicode="&#xe4f0;" horiz-adv-x="642" d="M635 30 Q595 5 558 -3 Q521 -11 498 -11 Q459 -11 436 -0.5 Q413 10 401.5 29 Q390 48 387 75.5 Q384 103 384 136 L384 431 L207 431 L207 76 Q207 46 219.5 32 Q232 18 247 12.5 Q262 7 274.5 6.5 Q287 6 287 2 L287 0 L11 0 L11 2 Q11 6 24.5 6 Q38 6 53.5 11.5 Q69 17 82.5 32.5 Q96 48 96 81 L96 431 L27 431 L27 436 L96 436 Q96 495 108 550 Q120 605 145 647 Q170 689 209.5 714.5 Q249 740 303 740 Q316 740 330 736 Q344 732 354.5 724 Q365 716 372 704.5 Q379 693 379 679 Q379 658 364 642.5 Q349 627 323 627 Q293 627 273.5 651.5 Q254 676 254 712 Q254 722 255 727 Q228 718 217.5 701 Q207 684 207 655 L207 436 L385 436 Q426 451 454.5 488.5 Q483 526 493 580 L496 580 L496 436 L628 436 L628 431 L496 431 L496 69 Q496 38 508 21 Q520 4 549 4 Q563 4 584.5 10.5 Q606 17 633 33 L635 30 L635 30 Z " />
<glyph glyph-name="Alphatonos" unicode="&#x386;" horiz-adv-x="752" d="M512 53 Q512 67 507.5 82.5 Q503 98 498 112 L458 222 L200 222 L168 132 Q162 115 158.5 99.5 Q155 84 155 70 Q155 42 172.5 29.5 Q190 17 211 12.5 Q232 8 248.5 7 Q265 6 263 0 L5 0 Q3 7 19.5 7 Q36 7 60.5 14.5 Q85 22 111 43 Q137 64 155 112 L322 570 Q329 590 329 606 Q329 633 311.5 645 Q294 657 273.5 661.5 Q253 666 235.5 666.5 Q218 667 218 672 L218 674 L424 674 L640 77 Q651 46 668.5 31.5 Q686 17 702.5 12 Q719 7 731 6.5 Q743 6 743 2 L743 0 L432 0 L432 2 Q432 5 444.5 6 Q457 7 472 10.5 Q487 14 499.5 23.5 Q512 33 512 53 Z M203 227 L456 227 L330 579 L203 227 Z M13 494 Q55 529 73 563 Q91 597 101 623.5 Q111 650 120 666 Q129 682 153 682 Q173 682 183.5 670 Q194 658 194 644 Q194 632 183.5 613.5 Q173 595 151.5 573.5 Q130 552 96 530.5 Q62 509 15 491 L13 494 Z " />
<glyph glyph-name="anoteleia" unicode="&#x387;" horiz-adv-x="221" d="M48 342 Q48 368 66 386.5 Q84 405 110 405 Q136 405 154.5 386.5 Q173 368 173 342 Q173 316 154.5 298 Q136 280 110 280 Q84 280 66 298 Q48 316 48 342 Z " />
<glyph glyph-name="Epsilontonos" unicode="&#x388;" horiz-adv-x="699" d="M413 674 Q471 674 520.5 683.5 Q570 693 605 716 Q613 651 619.5 587.5 Q626 524 633 459 L631 459 Q628 459 626.5 462.5 Q625 466 623 472 Q606 520 586 557 Q566 594 538.5 619 Q511 644 475 656.5 Q439 669 390 669 L279 669 L279 356 L360 356 Q391 356 413.5 363.5 Q436 371 450.5 384.5 Q465 398 473.5 416 Q482 434 485 455 Q489 478 490 488 Q491 498 496 497 L496 203 Q491 201 489.5 211.5 Q488 222 485.5 238.5 Q483 255 477.5 274.5 Q472 294 459 311 Q446 328 423.5 339.5 Q401 351 365 351 L279 351 L279 98 Q279 53 300.5 28.5 Q322 4 372 4 L402 4 Q494 4 563 58 Q632 112 678 241 Q682 254 689 254 L634 -30 Q602 -16 553.5 -8 Q505 0 433 0 L33 0 L33 1 Q33 5 41.5 5.5 Q50 6 63 8 Q76 10 91.5 14.5 Q107 19 120 30.5 Q133 42 141.5 63 Q150 84 150 118 L150 577 Q150 617 132 635.5 Q114 654 92 660.5 Q70 667 52 667 Q34 667 34 672 L34 674 L413 674 Z M-174 494 Q-132 529 -114 563 Q-96 597 -86 623.5 Q-76 650 -67 666 Q-58 682 -34 682 Q-14 682 -3.5 670 Q7 658 7 644 Q7 632 -3.5 613.5 Q-14 595 -35.5 573.5 Q-57 552 -91 530.5 Q-125 509 -172 491 L-174 494 Z " />
<glyph glyph-name="Etatonos" unicode="&#x389;" horiz-adv-x="868" d="M278 118 Q278 66 296 43.5 Q314 21 336 13.5 Q358 6 375 6.5 Q392 7 391 0 L32 0 Q31 4 39 5 Q47 6 60 7.5 Q73 9 89 13.5 Q105 18 118.5 29.5 Q132 41 141 62 Q150 83 150 118 L150 577 Q150 618 131.5 636.5 Q113 655 91 661 Q69 667 50.5 667 Q32 667 32 672 L32 674 L392 674 L392 672 Q392 669 383.5 668 Q375 667 362.5 665.5 Q350 664 335 660 Q320 656 307.5 646.5 Q295 637 286.5 620.5 Q278 604 278 577 L278 359 L589 359 L589 577 Q589 604 580.5 620.5 Q572 637 559.5 646.5 Q547 656 532 660 Q517 664 504.5 665.5 Q492 667 483.5 668 Q475 669 475 672 L475 674 L833 674 L833 672 Q833 667 815 667 Q797 667 775 660.5 Q753 654 735 636 Q717 618 717 577 L717 120 Q717 85 726 63.5 Q735 42 748.5 30 Q762 18 778 13.5 Q794 9 807 7.5 Q820 6 828 5 Q836 4 835 0 L475 0 Q473 6 490.5 6 Q508 6 530 14 Q552 22 570.5 46.5 Q589 71 589 126 L589 354 L278 354 L278 118 Z M-167 494 Q-125 529 -107 563 Q-89 597 -79 623.5 Q-69 650 -60 666 Q-51 682 -27 682 Q-7 682 3.5 670 Q14 658 14 644 Q14 632 3.5 613.5 Q-7 595 -28.5 573.5 Q-50 552 -84 530.5 Q-118 509 -165 491 L-167 494 Z " />
<glyph glyph-name="Iotatonos" unicode="&#x38a;" horiz-adv-x="439" d="M284 118 Q284 84 292.5 63 Q301 42 314.5 30.5 Q328 19 343 14.5 Q358 10 371.5 8 Q385 6 393.5 5.5 Q402 5 402 1 L402 0 L37 0 L37 1 Q37 5 45.5 5.5 Q54 6 67.5 8 Q81 10 96 14.5 Q111 19 124.5 30.5 Q138 42 146.5 63 Q155 84 155 118 L155 577 Q155 617 136.5 635.5 Q118 654 96 660.5 Q74 667 55.5 667 Q37 667 37 672 L37 674 L402 674 L402 672 Q402 667 383.5 666.5 Q365 666 343 659.5 Q321 653 302.5 635 Q284 617 284 577 L284 118 Z M-167 494 Q-125 529 -107 563 Q-89 597 -79 623.5 Q-69 650 -60 666 Q-51 682 -27 682 Q-7 682 3.5 670 Q14 658 14 644 Q14 632 3.5 613.5 Q-7 595 -28.5 573.5 Q-50 552 -84 530.5 Q-118 509 -165 491 L-167 494 Z " />
<glyph glyph-name="Omicrontonos" unicode="&#x38c;" horiz-adv-x="793" d="M48 335 Q48 405 72 468 Q96 531 141 579 Q186 627 250 655.5 Q314 684 394 684 Q478 684 543.5 655.5 Q609 627 654 579 Q699 531 722 468.5 Q745 406 745 338 Q745 269 721 205.5 Q697 142 651.5 94 Q606 46 541 17 Q476 -12 394 -12 Q308 -12 243.5 16 Q179 44 135.5 92 Q92 140 70 203 Q48 266 48 335 Z M192 337 Q192 271 200 209 Q208 147 230.5 99 Q253 51 293.5 22 Q334 -7 398 -7 Q459 -7 498.5 20 Q538 47 561 93.5 Q584 140 592.5 201 Q601 262 601 331 Q601 400 592 463 Q583 526 560 574 Q537 622 497 650.5 Q457 679 394 679 Q335 679 296.5 649.5 Q258 620 234.5 572 Q211 524 201.5 462.5 Q192 401 192 337 Z M-125 494 Q-83 529 -65 563 Q-47 597 -37 623.5 Q-27 650 -18 666 Q-9 682 15 682 Q35 682 45.5 670 Q56 658 56 644 Q56 632 45.5 613.5 Q35 595 13.5 573.5 Q-8 552 -42 530.5 Q-76 509 -123 491 L-125 494 Z " />
<glyph glyph-name="Upsilontonos" unicode="&#x38e;" horiz-adv-x="696" d="M410 118 Q410 84 418.5 63 Q427 42 440.5 30.5 Q454 19 469 14.5 Q484 10 497.5 8 Q511 6 519.5 5.5 Q528 5 528 1 L528 0 L163 0 L163 1 Q163 5 171.5 5.5 Q180 6 193.5 8 Q207 10 222 14.5 Q237 19 250.5 30.5 Q264 42 272.5 63 Q281 84 281 118 L281 288 L108 596 Q90 627 71.5 641 Q53 655 37 660 Q21 665 11.5 666 Q2 667 2 671 L2 673 L335 673 L335 671 Q335 667 320.5 666 Q306 665 288.5 661 Q271 657 256.5 648.5 Q242 640 242 622 Q242 611 248 597 Q254 583 265 563 L407 314 L531 550 Q541 568 544.5 582.5 Q548 597 548 608 Q548 632 533 643.5 Q518 655 500.5 659.5 Q483 664 468 665.5 Q453 667 453 671 L453 673 L692 673 Q693 667 679 666.5 Q665 666 642 657.5 Q619 649 591 626 Q563 603 537 552 L410 309 L410 118 Z M-194 494 Q-152 529 -134 563 Q-116 597 -106 623.5 Q-96 650 -87 666 Q-78 682 -54 682 Q-34 682 -23.5 670 Q-13 658 -13 644 Q-13 632 -23.5 613.5 Q-34 595 -55.5 573.5 Q-77 552 -111 530.5 Q-145 509 -192 491 L-194 494 Z " />
<glyph glyph-name="Omegatonos" unicode="&#x38f;" horiz-adv-x="826" d="M29 234 L32 234 Q36 234 37 229.5 Q38 225 40 221 Q78 109 142 56.5 Q206 4 302 4 L372 4 Q372 22 358 36.5 Q344 51 323.5 64 Q303 77 278.5 89 Q254 101 232 114 Q160 156 113.5 223.5 Q67 291 67 379 Q67 430 87.5 485 Q108 540 151.5 585.5 Q195 631 261.5 660.5 Q328 690 420 690 Q510 690 577 662.5 Q644 635 688 590.5 Q732 546 753.5 490.5 Q775 435 775 379 Q775 312 745 253 Q715 194 664 152 Q638 131 605 112.5 Q572 94 542.5 76.5 Q513 59 492.5 41 Q472 23 472 4 L540 4 Q636 4 701 55.5 Q766 107 803 220 Q805 225 806 229.5 Q807 234 811 234 L813 234 L775 -19 Q718 -8 641 -4.5 Q564 -1 467 0 Q468 24 482.5 41.5 Q497 59 517.5 78 Q538 97 560.5 121 Q583 145 600 182 Q615 217 624.5 265 Q634 313 634 377 Q634 427 624 481.5 Q614 536 589.5 581 Q565 626 523.5 655.5 Q482 685 420 685 Q360 685 319 655 Q278 625 253.5 579.5 Q229 534 218.5 480 Q208 426 208 377 Q208 296 221 240 Q234 184 259 146 Q275 122 295 104 Q315 86 333 70 Q351 54 364 37.5 Q377 21 377 0 Q295 -1 216.5 -4.5 Q138 -8 67 -19 L29 234 Z M-107 493 Q-65 528 -47 562 Q-29 596 -19 622.5 Q-9 649 0 665 Q9 681 33 681 Q53 681 63.5 669 Q74 657 74 643 Q74 631 63.5 612.5 Q53 594 31.5 572.5 Q10 551 -24 529.5 Q-58 508 -105 490 L-107 493 Z " />
<glyph glyph-name="iotadieresistonos" unicode="&#x390;" horiz-adv-x="338" d="M227 65 Q227 36 240 22.5 Q253 9 270 9 Q282 9 294 13 Q294 12 294.5 11.5 Q295 11 295 10 Q281 2 253.5 -4 Q226 -10 201 -10 Q183 -10 167.5 -6.5 Q152 -3 140.5 5.5 Q129 14 122 28.5 Q115 43 115 66 L115 354 Q115 386 102 399.5 Q89 413 73 417.5 Q57 422 44 421.5 Q31 421 31 426 L31 428 L225 449 L228 447 L227 65 Z M-21 596 Q-21 619 -4.5 635 Q12 651 35 651 Q58 651 74 635 Q90 619 90 596 Q90 573 74 556.5 Q58 540 35 540 Q12 540 -4.5 556.5 Q-21 573 -21 596 Z M240 596 Q240 619 256 635 Q272 651 295 651 Q318 651 334.5 635 Q351 619 351 596 Q351 573 334.5 556.5 Q318 540 295 540 Q272 540 256 556.5 Q240 573 240 596 Z M72 502 Q72 503 69 506 Q106 545 121 581 Q136 617 144 644 Q152 671 161.5 687.5 Q171 704 197 704 Q214 704 225 693 Q236 682 236 668 Q236 656 226.5 636.5 Q217 617 197 594.5 Q177 572 146 548 Q115 524 72 502 Z " />
<glyph glyph-name="Alpha" unicode="&#x391;" horiz-adv-x="752" d="M512 53 Q512 67 507.5 82.5 Q503 98 498 112 L458 222 L200 222 L168 132 Q162 115 158.5 99.5 Q155 84 155 70 Q155 42 172.5 29.5 Q190 17 211 12.5 Q232 8 248.5 7 Q265 6 263 0 L5 0 Q3 7 19.5 7 Q36 7 60.5 14.5 Q85 22 111 43 Q137 64 155 112 L322 570 Q329 590 329 606 Q329 633 311.5 645 Q294 657 273.5 661.5 Q253 666 235.5 666.5 Q218 667 218 672 L218 674 L424 674 L640 77 Q651 46 668.5 31.5 Q686 17 702.5 12 Q719 7 731 6.5 Q743 6 743 2 L743 0 L432 0 L432 2 Q432 5 444.5 6 Q457 7 472 10.5 Q487 14 499.5 23.5 Q512 33 512 53 Z M203 227 L456 227 L330 579 L203 227 Z " />
<glyph glyph-name="Beta" unicode="&#x392;" horiz-adv-x="716" d="M32 1 Q32 5 40.5 5.5 Q49 6 62 8 Q75 10 90.5 14.5 Q106 19 119 30.5 Q132 42 140.5 63 Q149 84 149 118 L149 577 Q149 617 131 635.5 Q113 654 91 660.5 Q69 667 51 667 Q33 667 33 672 L33 674 L387 674 Q459 674 507.5 660 Q556 646 584.5 624 Q613 602 625 573.5 Q637 545 637 517 Q637 487 621.5 461.5 Q606 436 578 416.5 Q550 397 510.5 385 Q471 373 423 371 L423 368 Q490 365 537.5 348 Q585 331 615 305.5 Q645 280 659 249 Q673 218 673 188 Q673 156 660 123 Q647 90 615.5 62.5 Q584 35 532 17.5 Q480 0 402 0 L32 0 L32 1 Z M278 121 Q278 98 280 77 Q282 56 291 40 Q300 24 318 14 Q336 4 368 4 L380 4 Q448 4 491 51.5 Q534 99 534 182 Q534 227 519 261.5 Q504 296 480 319 Q456 342 426 353.5 Q396 365 366 365 L278 365 L278 121 Z M278 370 L355 370 Q381 370 407 378.5 Q433 387 454 405 Q475 423 488 450.5 Q501 478 501 515 Q501 584 463.5 626.5 Q426 669 351 669 L278 669 L278 370 Z " />
<glyph glyph-name="Gamma" unicode="&#x393;" horiz-adv-x="651" d="M280 118 Q280 84 288.5 63 Q297 42 310.5 30.5 Q324 19 339 14.5 Q354 10 367.5 8 Q381 6 389.5 5.5 Q398 5 398 1 L398 0 L33 0 L33 1 Q33 5 41.5 5.5 Q50 6 63.5 8 Q77 10 92 14.5 Q107 19 120.5 30.5 Q134 42 142.5 63 Q151 84 151 118 L151 577 Q151 617 133 635.5 Q115 654 93 660.5 Q71 667 53 667 Q35 667 35 672 L35 674 L416 674 Q478 674 527.5 683 Q577 692 611 716 Q619 651 625.5 587.5 Q632 524 639 459 L637 459 Q635 459 630 472 Q597 569 542 619 Q487 669 397 669 L280 669 L280 118 Z " />
<glyph glyph-name="Delta" unicode="&#x394;" horiz-adv-x="690" d="M28 2 L338 678 L371 680 L662 3 L662 0 L28 0 L28 2 Z M33 4 L525 4 Q465 143 406.5 280.5 Q348 418 287 556 L33 4 Z " />
<glyph glyph-name="Epsilon" unicode="&#x395;" horiz-adv-x="699" d="M413 674 Q471 674 520.5 683.5 Q570 693 605 716 Q613 651 619.5 587.5 Q626 524 633 459 L631 459 Q628 459 626.5 462.5 Q625 466 623 472 Q606 520 586 557 Q566 594 538.5 619 Q511 644 475 656.5 Q439 669 390 669 L279 669 L279 356 L360 356 Q391 356 413.5 363.5 Q436 371 450.5 384.5 Q465 398 473.5 416 Q482 434 485 455 Q489 478 490 488 Q491 498 496 497 L496 203 Q491 201 489.5 211.5 Q488 222 485.5 238.5 Q483 255 477.5 274.5 Q472 294 459 311 Q446 328 423.5 339.5 Q401 351 365 351 L279 351 L279 98 Q279 53 300.5 28.5 Q322 4 372 4 L402 4 Q494 4 563 58 Q632 112 678 241 Q682 254 689 254 L634 -30 Q602 -16 553.5 -8 Q505 0 433 0 L33 0 L33 1 Q33 5 41.5 5.5 Q50 6 63 8 Q76 10 91.5 14.5 Q107 19 120 30.5 Q133 42 141.5 63 Q150 84 150 118 L150 577 Q150 617 132 635.5 Q114 654 92 660.5 Q70 667 52 667 Q34 667 34 672 L34 674 L413 674 L413 674 Z " />
<glyph glyph-name="Zeta" unicode="&#x396;" horiz-adv-x="666" d="M358 4 Q409 4 448.5 16.5 Q488 29 520 58 Q552 87 579.5 134.5 Q607 182 633 252 Q635 259 637.5 264 Q640 269 643 269 L645 269 L592 -34 Q547 -15 494 -7.5 Q441 0 384 0 L19 0 L19 4 L457 669 L305 669 Q255 669 219 656.5 Q183 644 156 618 Q129 592 108.5 553 Q88 514 69 462 Q67 456 66 452.5 Q65 449 60 450 Q67 516 72 559 Q77 602 80 630.5 Q83 659 85 677 Q87 695 89 711 Q140 689 190 681.5 Q240 674 294 674 L608 674 L608 669 L178 4 L358 4 Z " />
<glyph glyph-name="Eta" unicode="&#x397;" horiz-adv-x="868" d="M278 118 Q278 66 296 43.5 Q314 21 336 13.5 Q358 6 375 6.5 Q392 7 391 0 L32 0 Q31 4 39 5 Q47 6 60 7.5 Q73 9 89 13.5 Q105 18 118.5 29.5 Q132 41 141 62 Q150 83 150 118 L150 577 Q150 618 131.5 636.5 Q113 655 91 661 Q69 667 50.5 667 Q32 667 32 672 L32 674 L392 674 L392 672 Q392 669 383.5 668 Q375 667 362.5 665.5 Q350 664 335 660 Q320 656 307.5 646.5 Q295 637 286.5 620.5 Q278 604 278 577 L278 359 L589 359 L589 577 Q589 604 580.5 620.5 Q572 637 559.5 646.5 Q547 656 532 660 Q517 664 504.5 665.5 Q492 667 483.5 668 Q475 669 475 672 L475 674 L833 674 L833 672 Q833 667 815 667 Q797 667 775 660.5 Q753 654 735 636 Q717 618 717 577 L717 120 Q717 85 726 63.5 Q735 42 748.5 30 Q762 18 778 13.5 Q794 9 807 7.5 Q820 6 828 5 Q836 4 835 0 L475 0 Q473 6 490.5 6 Q508 6 530 14 Q552 22 570.5 46.5 Q589 71 589 126 L589 354 L278 354 L278 118 Z " />
<glyph glyph-name="Theta" unicode="&#x398;" horiz-adv-x="843" d="M416 683 Q504 683 573.5 655 Q643 627 691.5 580 Q740 533 765.5 470.5 Q791 408 791 338 Q791 267 764 203.5 Q737 140 688 92 Q639 44 570 16 Q501 -12 416 -12 Q327 -12 258 15.5 Q189 43 141.5 90.5 Q94 138 69 201 Q44 264 44 336 Q44 408 71.5 471 Q99 534 148 581 Q197 628 265.5 655.5 Q334 683 416 683 Z M416 679 Q355 679 312 649 Q269 619 241.5 571 Q214 523 201.5 461.5 Q189 400 189 337 Q189 271 201 209 Q213 147 240.5 99 Q268 51 312 22 Q356 -7 420 -7 Q481 -7 524.5 21 Q568 49 595 96 Q622 143 634.5 204.5 Q647 266 647 332 Q647 399 635 461.5 Q623 524 596 572.5 Q569 621 524.5 650 Q480 679 416 679 Z M234 287 Q233 287 232 287.5 Q231 288 230 288 Q254 336 288.5 365.5 Q323 395 373 395 Q394 395 416.5 389.5 Q439 384 460 377.5 Q481 371 500.5 365.5 Q520 360 537 360 Q556 360 573 372.5 Q590 385 603 412 L607 412 Q587 355 554 327 Q521 299 470 299 Q448 299 427 304.5 Q406 310 386.5 317 Q367 324 348.5 329.5 Q330 335 312 335 Q289 335 269.5 325 Q250 315 234 287 Z " />
<glyph glyph-name="Iota" unicode="&#x399;" horiz-adv-x="439" d="M284 118 Q284 84 292.5 63 Q301 42 314.5 30.5 Q328 19 343 14.5 Q358 10 371.5 8 Q385 6 393.5 5.5 Q402 5 402 1 L402 0 L37 0 L37 1 Q37 5 45.5 5.5 Q54 6 67.5 8 Q81 10 96 14.5 Q111 19 124.5 30.5 Q138 42 146.5 63 Q155 84 155 118 L155 577 Q155 617 136.5 635.5 Q118 654 96 660.5 Q74 667 55.5 667 Q37 667 37 672 L37 674 L402 674 L402 672 Q402 667 383.5 666.5 Q365 666 343 659.5 Q321 653 302.5 635 Q284 617 284 577 L284 118 Z " />
<glyph glyph-name="Kappa" unicode="&#x39a;" horiz-adv-x="774" d="M146 577 Q146 617 128 635.5 Q110 654 88.5 660.5 Q67 667 49 667 Q31 667 31 672 L31 674 L388 674 L388 672 Q388 669 379.5 668 Q371 667 358.5 665.5 Q346 664 331 660 Q316 656 303.5 646.5 Q291 637 282.5 620.5 Q274 604 274 577 L274 343 L336 343 L516 541 Q540 568 550 587.5 Q560 607 560 621 Q560 641 547.5 650 Q535 659 520 662.5 Q505 666 492.5 666.5 Q480 667 480 672 L480 674 L753 674 Q754 665 737.5 664.5 Q721 664 691 656.5 Q661 649 620.5 627 Q580 605 533 553 L412 419 L633 96 Q661 54 687 36 Q713 18 732 12 Q751 6 762 6 Q773 6 772 0 L446 0 L446 2 Q446 6 457 6.5 Q468 7 481.5 9.5 Q495 12 506 19 Q517 26 517 42 Q517 57 499 84 L324 338 L274 338 L274 118 Q274 67 291 44.5 Q308 22 329 14.5 Q350 7 367 7 Q384 7 384 1 L384 0 L27 0 L27 1 Q27 5 35.5 5.5 Q44 6 57.5 8 Q71 10 86 14.5 Q101 19 114.5 30.5 Q128 42 136.5 63 Q145 84 145 118 L146 577 Z " />
<glyph glyph-name="Lambda" unicode="&#x39b;" horiz-adv-x="729" d="M303 541 L147 127 Q140 108 138 93.5 Q136 79 136 69 Q136 40 151 28 Q166 16 184 11.5 Q202 7 216 6.5 Q230 6 228 0 L3 0 Q2 4 8 5 Q14 6 24.5 7.5 Q35 9 49 14 Q63 19 79 31.5 Q95 44 111 67 Q127 90 141 128 L349 678 Q356 678 364 678.5 Q372 679 379 680 L620 77 Q632 46 649.5 31.5 Q667 17 683 12 Q699 7 710 6.5 Q721 6 721 2 L721 0 L412 0 L412 2 Q412 6 424.5 7 Q437 8 452.5 12.5 Q468 17 480.5 26.5 Q493 36 493 56 Q493 62 490.5 70 Q488 78 485 86 L303 541 Z " />
<glyph glyph-name="Mu" unicode="&#x39c;" horiz-adv-x="955" d="M154 581 Q154 607 145.5 623 Q137 639 124 648 Q111 657 96.5 660.5 Q82 664 69 665.5 Q56 667 47.5 667.5 Q39 668 39 672 L39 674 L257 674 Q314 563 372 454 Q430 345 488 234 L695 674 L922 674 L922 672 Q922 667 903.5 666.5 Q885 666 863 659.5 Q841 653 822.5 635 Q804 617 804 577 L804 118 Q804 84 812.5 63 Q821 42 834.5 30.5 Q848 19 863 14.5 Q878 10 891.5 8 Q905 6 913.5 5.5 Q922 5 922 1 L922 0 L567 0 L567 1 Q567 5 575.5 5.5 Q584 6 596 8 Q608 10 623 14.5 Q638 19 650 30.5 Q662 42 670.5 63 Q679 84 679 118 L679 627 L678 627 L491 229 L573 71 Q572 71 571.5 70.5 Q571 70 569 70 Q551 102 510 123.5 Q469 145 403 145 L160 602 L159 602 L159 136 Q159 98 168.5 74.5 Q178 51 192.5 37.5 Q207 24 224 18 Q241 12 255.5 9.5 Q270 7 279.5 6 Q289 5 289 1 L289 0 L22 0 L22 1 Q22 5 32 6 Q42 7 56.5 9.5 Q71 12 88 17.5 Q105 23 119.5 37 Q134 51 144 75.5 Q154 100 154 139 L154 581 Z " />
<glyph glyph-name="Nu" unicode="&#x39d;" horiz-adv-x="810" d="M269 674 Q364 553 458 434 Q552 315 648 195 L648 535 Q648 574 638 598.5 Q628 623 613.5 637 Q599 651 582 656.5 Q565 662 550.5 664.5 Q536 667 526 668 Q516 669 516 673 L516 674 L783 674 L783 673 Q783 669 773.5 668 Q764 667 749.5 664.5 Q735 662 718 656 Q701 650 686.5 636.5 Q672 623 662.5 599.5 Q653 576 653 538 L653 -17 L651 -17 L161 603 L161 136 Q161 98 170.5 74.5 Q180 51 194.5 37.5 Q209 24 226 18 Q243 12 257.5 9.5 Q272 7 281.5 6 Q291 5 291 1 L291 0 L24 0 L24 1 Q24 5 34 6 Q44 7 58.5 9.5 Q73 12 90 17.5 Q107 23 121.5 37 Q136 51 146 75.5 Q156 100 156 139 L156 581 Q156 620 138 637 Q120 654 99 660 Q78 666 60 666.5 Q42 667 42 672 L42 674 L269 674 L269 674 Z " />
<glyph glyph-name="Xi" unicode="&#x39e;" horiz-adv-x="700" d="M290 578 Q246 578 213.5 574 Q181 570 156.5 557.5 Q132 545 113.5 520.5 Q95 496 80 455 Q75 442 71 442 L69 442 Q82 505 95 567 Q108 629 122 692 Q177 685 256 681.5 Q335 678 429 678 Q483 678 533.5 679 Q584 680 636 682 Q637 681 637 680.5 Q637 680 639 679 Q620 631 595.5 590.5 Q571 550 542.5 514 Q514 478 481.5 446 Q449 414 414 384 Q447 378 472 378 Q482 378 493 379 Q504 380 514 385.5 Q524 391 531.5 401.5 Q539 412 544 432 L548 432 Q537 360 506 327 Q475 294 424 294 Q400 294 373.5 299 Q347 304 322 310 Q264 263 204 212.5 Q144 162 89 97 L430 97 Q484 97 519 103.5 Q554 110 578 126.5 Q602 143 618.5 171 Q635 199 653 241 Q655 247 657.5 252 Q660 257 663 257 L666 257 L610 -18 Q590 -15 564 -12.5 Q538 -10 503 -8 Q468 -6 422 -4.5 Q376 -3 316 -3 Q253 -3 178.5 -4 Q104 -5 13 -8 L11 -5 Q38 44 73 86.5 Q108 129 147.5 167.5 Q187 206 230 241 Q273 276 316 311 Q293 316 273 320.5 Q253 325 239 325 Q227 325 215.5 323.5 Q204 322 194 316.5 Q184 311 175 299.5 Q166 288 159 268 Q158 268 157 268.5 Q156 269 155 269 Q172 339 206.5 370 Q241 401 301 401 Q324 401 352.5 395.5 Q381 390 409 385 Q459 428 502.5 474.5 Q546 521 581 578 L290 578 Z " />
<glyph glyph-name="Omicron" unicode="&#x39f;" horiz-adv-x="793" d="M48 335 Q48 405 72 468 Q96 531 141 579 Q186 627 250 655.5 Q314 684 394 684 Q478 684 543.5 655.5 Q609 627 654 579 Q699 531 722 468.5 Q745 406 745 338 Q745 269 721 205.5 Q697 142 651.5 94 Q606 46 541 17 Q476 -12 394 -12 Q308 -12 243.5 16 Q179 44 135.5 92 Q92 140 70 203 Q48 266 48 335 Z M192 337 Q192 271 200 209 Q208 147 230.5 99 Q253 51 293.5 22 Q334 -7 398 -7 Q459 -7 498.5 20 Q538 47 561 93.5 Q584 140 592.5 201 Q601 262 601 331 Q601 400 592 463 Q583 526 560 574 Q537 622 497 650.5 Q457 679 394 679 Q335 679 296.5 649.5 Q258 620 234.5 572 Q211 524 201.5 462.5 Q192 401 192 337 Z " />
<glyph glyph-name="Pi" unicode="&#x3a0;" horiz-adv-x="856" d="M150 577 Q150 618 131.5 636.5 Q113 655 91 661 Q69 667 50.5 667 Q32 667 32 672 L32 674 L823 674 L823 672 Q823 667 805 667 Q787 667 765 660.5 Q743 654 725 636 Q707 618 707 577 L707 120 Q707 85 716 63.5 Q725 42 738.5 30 Q752 18 768 13.5 Q784 9 797 7.5 Q810 6 818 5 Q826 4 825 0 L465 0 Q463 6 480.5 6 Q498 6 520 14 Q542 22 560.5 46.5 Q579 71 579 126 L579 669 L278 669 L278 118 Q278 66 296 43.5 Q314 21 336 13.5 Q358 6 375 6.5 Q392 7 391 0 L32 0 Q31 4 39 5 Q47 6 60 7.5 Q73 9 89 13.5 Q105 18 118.5 29.5 Q132 41 141 62 Q150 83 150 118 L150 577 L150 577 Z " />
<glyph glyph-name="Rho" unicode="&#x3a1;" horiz-adv-x="663" d="M279 118 Q279 84 287.5 63 Q296 42 309.5 30.5 Q323 19 338 14.5 Q353 10 366.5 8 Q380 6 388.5 5.5 Q397 5 397 1 L397 0 L32 0 L32 1 Q32 5 40.5 5.5 Q49 6 62 8 Q75 10 90.5 14.5 Q106 19 119 30.5 Q132 42 140.5 63 Q149 84 149 118 L149 577 Q149 617 131 635.5 Q113 654 91 660.5 Q69 667 51 667 Q33 667 33 672 L33 674 L353 674 Q488 674 562.5 621.5 Q637 569 637 479 Q637 425 614.5 386.5 Q592 348 554.5 323.5 Q517 299 469.5 287.5 Q422 276 372 276 Q349 276 324.5 277.5 Q300 279 279 283 L279 118 Z M279 287 Q284 285 292 284.5 Q300 284 309 283 Q403 283 449.5 333.5 Q496 384 496 475 Q496 520 483 556 Q470 592 447 617 Q424 642 392.5 655.5 Q361 669 325 669 L279 669 L279 287 Z " />
<glyph glyph-name="Sigma" unicode="&#x3a3;" horiz-adv-x="637" d="M152 669 Q159 657 174 635 Q189 613 207 585.5 Q225 558 245 528 Q265 498 283 470 Q301 442 315.5 420 Q330 398 337 386 L94 97 L419 97 Q456 97 484.5 104.5 Q513 112 536 132 Q559 152 578.5 185.5 Q598 219 616 272 Q621 286 625 286 L627 286 L578 0 L8 0 L8 4 L257 299 L10 669 Q10 670 10.5 671.5 Q11 673 11 674 L352 674 Q408 674 459.5 682 Q511 690 550 716 L578 461 L576 461 Q572 461 570 465.5 Q568 470 566 476 Q549 524 529 560.5 Q509 597 482 621 Q455 645 419.5 657 Q384 669 336 669 L152 669 L152 669 Z " />
<glyph glyph-name="Tau" unicode="&#x3a4;" horiz-adv-x="659" d="M391 118 Q391 84 399.5 63 Q408 42 421.5 30.5 Q435 19 450 14.5 Q465 10 478.5 8 Q492 6 500.5 5.5 Q509 5 509 1 L509 0 L144 0 L144 1 Q144 5 152.5 5.5 Q161 6 174.5 8 Q188 10 203 14.5 Q218 19 231.5 30.5 Q245 42 253.5 63 Q262 84 262 118 L262 669 L249 669 Q200 669 163.5 656.5 Q127 644 100.5 618.5 Q74 593 55 554 Q36 515 21 462 Q18 450 15 450 L13 450 L41 708 Q97 685 165.5 679.5 Q234 674 322 674 Q410 674 486.5 679.5 Q563 685 619 711 L647 450 Q646 450 646 449.5 Q646 449 645 449 Q640 449 639 461 Q610 568 556.5 618.5 Q503 669 411 669 L392 669 L391 118 Z " />
<glyph glyph-name="Upsilon" unicode="&#x3a5;" horiz-adv-x="696" d="M410 118 Q410 84 418.5 63 Q427 42 440.5 30.5 Q454 19 469 14.5 Q484 10 497.5 8 Q511 6 519.5 5.5 Q528 5 528 1 L528 0 L163 0 L163 1 Q163 5 171.5 5.5 Q180 6 193.5 8 Q207 10 222 14.5 Q237 19 250.5 30.5 Q264 42 272.5 63 Q281 84 281 118 L281 288 L108 596 Q90 627 71.5 641 Q53 655 37 660 Q21 665 11.5 666 Q2 667 2 671 L2 673 L335 673 L335 671 Q335 667 320.5 666 Q306 665 288.5 661 Q271 657 256.5 648.5 Q242 640 242 622 Q242 611 248 597 Q254 583 265 563 L407 314 L531 550 Q541 568 544.5 582.5 Q548 597 548 608 Q548 632 533 643.5 Q518 655 500.5 659.5 Q483 664 468 665.5 Q453 667 453 671 L453 673 L692 673 Q693 667 679 666.5 Q665 666 642 657.5 Q619 649 591 626 Q563 603 537 552 L410 309 L410 118 Z " />
<glyph glyph-name="Phi" unicode="&#x3a6;" horiz-adv-x="881" d="M839 347 Q839 299 815.5 255 Q792 211 748.5 177.5 Q705 144 642 122 Q579 100 501 95 Q506 54 525 36 Q544 18 564.5 12 Q585 6 601.5 6.5 Q618 7 618 1 L618 0 L253 0 L253 1 Q253 7 269.5 6.5 Q286 6 306.5 12 Q327 18 345.5 36 Q364 54 369 96 Q287 101 225.5 122.5 Q164 144 123 177.5 Q82 211 61.5 254 Q41 297 41 346 Q41 399 68.5 442 Q96 485 141.5 516.5 Q187 548 246.5 567 Q306 586 370 592 Q366 626 347 641 Q328 656 307 661 Q286 666 269.5 666.5 Q253 667 253 672 L253 674 L618 674 L618 672 Q618 667 601 666.5 Q584 666 563 660.5 Q542 655 523.5 640 Q505 625 501 592 Q574 588 636 567.5 Q698 547 743 514.5 Q788 482 813.5 439 Q839 396 839 347 Z M501 101 Q545 103 582 121.5 Q619 140 645.5 172 Q672 204 686.5 247.5 Q701 291 701 343 Q701 396 687.5 440 Q674 484 648.5 515.5 Q623 547 586 565.5 Q549 584 501 587 L501 101 Z M180 347 Q180 230 232 168.5 Q284 107 370 101 L370 587 Q328 583 293 564.5 Q258 546 233 515 Q208 484 194 441.5 Q180 399 180 347 Z " />
<glyph glyph-name="Chi" unicode="&#x3a7;" horiz-adv-x="747" d="M324 302 L199 125 Q176 93 172 72 Q168 51 175 38.5 Q182 26 196.5 20 Q211 14 225.5 11 Q240 8 251 6.5 Q262 5 262 1 L262 0 L4 0 L4 1 Q4 6 20 6.5 Q36 7 62.5 16.5 Q89 26 123.5 50.5 Q158 75 196 129 L322 306 L135 599 Q115 629 95.5 643 Q76 657 60 662 Q44 667 34 667 Q24 667 24 671 L24 673 L367 673 L367 671 Q367 668 357 667 Q347 666 332.5 664 Q318 662 303.5 657.5 Q289 653 280.5 644 Q272 635 272 619.5 Q272 604 288 579 L407 395 L503 532 Q530 570 537.5 594.5 Q545 619 541.5 633 Q538 647 526 653.5 Q514 660 501 662.5 Q488 665 478 666 Q468 667 468 671 L468 673 L711 673 L711 672 Q711 667 694.5 666 Q678 665 650 654.5 Q622 644 585 616 Q548 588 506 528 L410 391 L612 78 Q632 46 654.5 32 Q677 18 695.5 12.5 Q714 7 726 6.5 Q738 6 738 2 L738 0 L385 0 L385 2 Q385 5 395 6 Q405 7 418.5 9 Q432 11 446 15.5 Q460 20 468.5 29.5 Q477 39 475.5 55 Q474 71 458 96 L324 302 Z " />
<glyph glyph-name="Psi" unicode="&#x3a8;" horiz-adv-x="940" d="M533 202 Q583 205 615.5 224.5 Q648 244 666.5 275 Q685 306 692.5 345 Q700 384 700 428 L700 672 L702 674 L933 674 L933 672 Q933 667 916 667 Q899 667 878.5 661 Q858 655 841 636.5 Q824 618 824 577 L824 491 Q824 431 806 379.5 Q788 328 751.5 290 Q715 252 660.5 228 Q606 204 533 198 L533 118 Q533 84 541.5 63 Q550 42 563.5 30.5 Q577 19 592 14.5 Q607 10 620.5 8 Q634 6 642.5 5.5 Q651 5 651 1 L651 0 L286 0 L286 1 Q286 5 294.5 5.5 Q303 6 316.5 8 Q330 10 345 14.5 Q360 19 373.5 30.5 Q387 42 395.5 63 Q404 84 404 118 L404 198 Q331 204 276.5 226.5 Q222 249 186 285 Q150 321 132 369 Q114 417 114 473 L114 577 Q114 618 97 636.5 Q80 655 59.5 661 Q39 667 22 667 Q5 667 5 672 L5 674 L235 674 L237 672 L237 430 Q237 386 244 346.5 Q251 307 269.5 276.5 Q288 246 320.5 226 Q353 206 404 202 L404 577 Q404 617 387 635.5 Q370 654 350 660.5 Q330 667 313 667 Q296 667 296 672 L296 674 L645 674 L645 672 Q645 667 627.5 666.5 Q610 666 589 659.5 Q568 653 550.5 635 Q533 617 533 577 L533 202 Z " />
<glyph glyph-name="Omega" unicode="&#x3a9;" horiz-adv-x="846" d="M29 234 L32 234 Q36 234 37 229.5 Q38 225 40 221 Q78 109 142 56.5 Q206 4 302 4 L372 4 Q372 22 358 36.5 Q344 51 323.5 64 Q303 77 278.5 89 Q254 101 232 114 Q160 156 113.5 223.5 Q67 291 67 379 Q67 430 87.5 485 Q108 540 151.5 585.5 Q195 631 261.5 660.5 Q328 690 420 690 Q510 690 577 662.5 Q644 635 688 590.5 Q732 546 753.5 490.5 Q775 435 775 379 Q775 312 745 253 Q715 194 664 152 Q638 131 605 112.5 Q572 94 542.5 76.5 Q513 59 492.5 41 Q472 23 472 4 L540 4 Q636 4 701 55.5 Q766 107 803 220 Q805 225 806 229.5 Q807 234 811 234 L813 234 L775 -19 Q718 -8 641 -4.5 Q564 -1 467 0 Q468 24 482.5 41.5 Q497 59 517.5 78 Q538 97 560.5 121 Q583 145 600 182 Q615 217 624.5 265 Q634 313 634 377 Q634 427 624 481.5 Q614 536 589.5 581 Q565 626 523.5 655.5 Q482 685 420 685 Q360 685 319 655 Q278 625 253.5 579.5 Q229 534 218.5 480 Q208 426 208 377 Q208 296 221 240 Q234 184 259 146 Q275 122 295 104 Q315 86 333 70 Q351 54 364 37.5 Q377 21 377 0 Q295 -1 216.5 -4.5 Q138 -8 67 -19 L29 234 Z " />
<glyph glyph-name="Iotadieresis" unicode="&#x3aa;" horiz-adv-x="439" d="M284 118 Q284 84 292.5 63 Q301 42 314.5 30.5 Q328 19 343 14.5 Q358 10 371.5 8 Q385 6 393.5 5.5 Q402 5 402 1 L402 0 L37 0 L37 1 Q37 5 45.5 5.5 Q54 6 67.5 8 Q81 10 96 14.5 Q111 19 124.5 30.5 Q138 42 146.5 63 Q155 84 155 118 L155 577 Q155 617 136.5 635.5 Q118 654 96 660.5 Q74 667 55.5 667 Q37 667 37 672 L37 674 L402 674 L402 672 Q402 667 383.5 666.5 Q365 666 343 659.5 Q321 653 302.5 635 Q284 617 284 577 L284 118 Z M128 844 Q151 844 167.5 827.5 Q184 811 184 788 Q184 765 167.5 749 Q151 733 128 733 Q105 733 88.5 749 Q72 765 72 788 Q72 811 88.5 827.5 Q105 844 128 844 Z M313 844 Q336 844 352 827.5 Q368 811 368 788 Q368 765 352 749 Q336 733 313 733 Q289 733 273 749 Q257 765 257 788 Q257 811 273 827.5 Q289 844 313 844 Z " />
<glyph glyph-name="Upsilondieresis" unicode="&#x3ab;" horiz-adv-x="696" d="M410 118 Q410 84 418.5 63 Q427 42 440.5 30.5 Q454 19 469 14.5 Q484 10 497.5 8 Q511 6 519.5 5.5 Q528 5 528 1 L528 0 L163 0 L163 1 Q163 5 171.5 5.5 Q180 6 193.5 8 Q207 10 222 14.5 Q237 19 250.5 30.5 Q264 42 272.5 63 Q281 84 281 118 L281 288 L108 596 Q90 627 71.5 641 Q53 655 37 660 Q21 665 11.5 666 Q2 667 2 671 L2 673 L335 673 L335 671 Q335 667 320.5 666 Q306 665 288.5 661 Q271 657 256.5 648.5 Q242 640 242 622 Q242 611 248 597 Q254 583 265 563 L407 314 L531 550 Q541 568 544.5 582.5 Q548 597 548 608 Q548 632 533 643.5 Q518 655 500.5 659.5 Q483 664 468 665.5 Q453 667 453 671 L453 673 L692 673 Q693 667 679 666.5 Q665 666 642 657.5 Q619 649 591 626 Q563 603 537 552 L410 309 L410 118 Z M272 842 Q295 842 311.5 825.5 Q328 809 328 786 Q328 763 311.5 747 Q295 731 272 731 Q249 731 232.5 747 Q216 763 216 786 Q216 809 232.5 825.5 Q249 842 272 842 Z M457 842 Q480 842 496 825.5 Q512 809 512 786 Q512 763 496 747 Q480 731 457 731 Q433 731 417 747 Q401 763 401 786 Q401 809 417 825.5 Q433 842 457 842 Z " />
<glyph glyph-name="alphatonos" unicode="&#x3ac;" horiz-adv-x="574" d="M278 437 Q243 437 219.5 420 Q196 403 182 372.5 Q168 342 162 299.5 Q156 257 156 206 Q156 137 167 97 Q178 57 195 36 Q212 15 232 9.5 Q252 4 270 4 Q285 4 300.5 9 Q316 14 330 22.5 Q344 31 356 42 Q368 53 377 65 L377 397 Q357 414 332.5 425.5 Q308 437 278 437 Z M250 448 Q285 448 318.5 437.5 Q352 427 382 399 Q412 401 439 416.5 Q466 432 486 458 L490 458 Q490 413 489.5 371 Q489 329 489 283 L489 61 Q489 33 494 19.5 Q499 6 519 6 Q530 6 547 12 Q547 11 547.5 10.5 Q548 10 548 9 Q534 2 510.5 -4 Q487 -10 462 -10 Q424 -10 402.5 4.5 Q381 19 378 60 Q349 23 308.5 5 Q268 -13 225 -13 Q197 -13 164 -3.5 Q131 6 103 30.5 Q75 55 56.5 97 Q38 139 38 204 Q38 253 51 297 Q64 341 90 374.5 Q116 408 156 428 Q196 448 250 448 Z M215 504 Q257 539 275 573 Q293 607 303 633.5 Q313 660 322 676 Q331 692 355 692 Q375 692 385.5 680 Q396 668 396 654 Q396 642 385.5 623.5 Q375 605 353.5 583.5 Q332 562 298 540.5 Q264 519 217 501 L215 504 Z " />
<glyph glyph-name="epsilontonos" unicode="&#x3ad;" horiz-adv-x="433" d="M157 504 Q199 539 217 573 Q235 607 245 633.5 Q255 660 264 676 Q273 692 297 692 Q317 692 327.5 680 Q338 668 338 654 Q338 642 327.5 623.5 Q317 605 295.5 583.5 Q274 562 240 540.5 Q206 519 159 501 L157 504 Z M206 235 Q158 237 127 247 Q96 257 79 271 Q62 285 55.5 300.5 Q49 316 49 330 Q49 349 58.5 370.5 Q68 392 90 409 Q112 426 148.5 437.5 Q185 449 240 449 Q309 449 352 424.5 Q395 400 395 362 Q395 340 382 326.5 Q369 313 352 313 Q321 313 306.5 332 Q292 351 292 380 Q292 408 304 437 Q284 442 264 442 Q242 442 222 435 Q202 428 187 414 Q172 400 163.5 380 Q155 360 155 334 Q155 303 167 283.5 Q179 264 199 253 Q219 242 246.5 238 Q274 234 305 234 L305 229 Q227 228 190.5 194 Q154 160 154 103 Q154 75 164 55.5 Q174 36 191 23.5 Q208 11 230 5.5 Q252 0 276 0 Q317 0 354.5 12.5 Q392 25 421 48 L424 44 Q388 15 339.5 1.5 Q291 -12 239 -12 Q197 -12 159.5 -5 Q122 2 94.5 16 Q67 30 51 52.5 Q35 75 35 107 Q35 125 43.5 146 Q52 167 72 185 Q92 203 125 216 Q158 229 206 231 L206 235 Z " />
<glyph glyph-name="etatonos" unicode="&#x3ae;" horiz-adv-x="601" d="M504 66 Q504 36 511.5 21 Q519 6 538 6 Q552 6 570 13 Q570 12 570.5 11.5 Q571 11 571 10 Q557 2 529.5 -4 Q502 -10 477 -10 Q457 -10 441.5 -6 Q426 -2 415 8.5 Q404 19 398 37 Q392 55 392 84 L392 350 Q392 387 376.5 410 Q361 433 324 433 Q295 433 265.5 414 Q236 395 219 368 L219 71 Q219 42 229.5 29 Q240 16 253 11.5 Q266 7 276.5 6.5 Q287 6 287 2 L287 0 L31 0 L31 2 Q31 6 43 6.5 Q55 7 69.5 12.5 Q84 18 96 33 Q108 48 108 81 L108 352 Q108 385 96 399 Q84 413 69.5 417.5 Q55 422 43 421.5 Q31 421 31 426 L31 428 L215 448 L218 446 Q216 426 214.5 406.5 Q213 387 211 367 L213 367 Q242 410 283.5 429.5 Q325 449 367 449 Q393 449 418 442 Q443 435 462 419.5 Q481 404 492.5 378 Q504 352 504 315 L504 66 Z M218 504 Q260 539 278 573 Q296 607 306 633.5 Q316 660 325 676 Q334 692 358 692 Q378 692 388.5 680 Q399 668 399 654 Q399 642 388.5 623.5 Q378 605 356.5 583.5 Q335 562 301 540.5 Q267 519 220 501 L218 504 Z " />
<glyph glyph-name="iotatonos" unicode="&#x3af;" horiz-adv-x="338" d="M227 65 Q227 36 240 22.5 Q253 9 270 9 Q282 9 294 13 Q294 12 294.5 11.5 Q295 11 295 10 Q281 2 253.5 -4 Q226 -10 201 -10 Q183 -10 167.5 -6.5 Q152 -3 140.5 5.5 Q129 14 122 28.5 Q115 43 115 66 L115 354 Q115 386 102 399.5 Q89 413 73 417.5 Q57 422 44 421.5 Q31 421 31 426 L31 428 L225 449 L228 447 L227 65 Z M78 504 Q120 539 138 573 Q156 607 166 633.5 Q176 660 185 676 Q194 692 218 692 Q238 692 248.5 680 Q259 668 259 654 Q259 642 248.5 623.5 Q238 605 216.5 583.5 Q195 562 161 540.5 Q127 519 80 501 L78 504 Z " />
<glyph glyph-name="upsilondieresistonos" unicode="&#x3b0;" horiz-adv-x="588" d="M103 353 Q103 385 89.5 399 Q76 413 60.5 417.5 Q45 422 31.5 421.5 Q18 421 18 426 L18 428 L211 448 L214 446 L214 118 Q214 46 234 19.5 Q254 -7 298 -7 Q333 -7 357 12.5 Q381 32 396 64.5 Q411 97 417.5 139.5 Q424 182 424 228 Q424 259 422.5 295.5 Q421 332 413.5 364 Q406 396 391.5 421 Q377 446 352 455 L352 456 Q352 457 352.5 457 Q353 457 353 458 Q404 451 440 428 Q476 405 499 373.5 Q522 342 532.5 305.5 Q543 269 543 236 Q543 191 528 146.5 Q513 102 482 67 Q451 32 404 10 Q357 -12 294 -12 Q251 -12 216 -1.5 Q181 9 156 32.5 Q131 56 117 92.5 Q103 129 103 181 L103 353 Z M110 596 Q110 619 126.5 635 Q143 651 166 651 Q189 651 205 635 Q221 619 221 596 Q221 573 205 556.5 Q189 540 166 540 Q143 540 126.5 556.5 Q110 573 110 596 Z M371 596 Q371 619 387 635 Q403 651 426 651 Q449 651 465.5 635 Q482 619 482 596 Q482 573 465.5 556.5 Q449 540 426 540 Q403 540 387 556.5 Q371 573 371 596 Z M203 502 Q203 503 200 506 Q237 545 252 581 Q267 617 275 644 Q283 671 292.5 687.5 Q302 704 328 704 Q345 704 356 693 Q367 682 367 668 Q367 656 357.5 636.5 Q348 617 328 594.5 Q308 572 277 548 Q246 524 203 502 Z " />
<glyph glyph-name="alpha" unicode="&#x3b1;" horiz-adv-x="574" d="M278 437 Q243 437 219.5 420 Q196 403 182 372.5 Q168 342 162 299.5 Q156 257 156 206 Q156 137 167 97 Q178 57 195 36 Q212 15 232 9.5 Q252 4 270 4 Q285 4 300.5 9 Q316 14 330 22.5 Q344 31 356 42 Q368 53 377 65 L377 397 Q357 414 332.5 425.5 Q308 437 278 437 Z M250 448 Q285 448 318.5 437.5 Q352 427 382 399 Q412 401 439 416.5 Q466 432 486 458 L490 458 Q490 413 489.5 371 Q489 329 489 283 L489 61 Q489 33 494 19.5 Q499 6 519 6 Q530 6 547 12 Q547 11 547.5 10.5 Q548 10 548 9 Q534 2 510.5 -4 Q487 -10 462 -10 Q424 -10 402.5 4.5 Q381 19 378 60 Q349 23 308.5 5 Q268 -13 225 -13 Q197 -13 164 -3.5 Q131 6 103 30.5 Q75 55 56.5 97 Q38 139 38 204 Q38 253 51 297 Q64 341 90 374.5 Q116 408 156 428 Q196 448 250 448 Z " />
<glyph glyph-name="beta" unicode="&#x3b2;" horiz-adv-x="544" d="M282 403 Q342 397 384.5 377 Q427 357 454 328.5 Q481 300 493.5 266 Q506 232 506 200 Q506 152 489.5 113 Q473 74 443.5 46.5 Q414 19 374 4 Q334 -11 287 -11 Q238 -11 210 -1.5 Q182 8 159 23 L159 -166 Q129 -171 102 -184.5 Q75 -198 53 -224 L47 -224 L47 423 Q47 443 47.5 463.5 Q48 484 49 504 Q51 548 68 589.5 Q85 631 113 662.5 Q141 694 179 713 Q217 732 262 732 Q314 732 351.5 718.5 Q389 705 413.5 682.5 Q438 660 449.5 631 Q461 602 461 571 Q461 543 451 516 Q441 489 419 466.5 Q397 444 363.5 428 Q330 412 284 406 L282 403 Z M200 400 Q200 402 199.5 402.5 Q199 403 199 405 Q242 408 270.5 423.5 Q299 439 316 462.5 Q333 486 340 516.5 Q347 547 347 581 Q347 649 324.5 687.5 Q302 726 250 726 Q199 726 179 689.5 Q159 653 159 589 L159 30 Q185 13 209 5.5 Q233 -2 265 -2 Q296 -2 319 12 Q342 26 357 51.5 Q372 77 379 113 Q386 149 386 192 Q386 236 376.5 274 Q367 312 345 339.5 Q323 367 287.5 383.5 Q252 400 200 400 Z " />
<glyph glyph-name="gamma" unicode="&#x3b3;" horiz-adv-x="542" d="M318 -184 Q289 -189 263 -202 Q237 -215 214 -241 L208 -241 L208 25 L99 331 Q84 374 70 392.5 Q56 411 35 411 Q24 411 5 399 Q5 400 4 400.5 Q3 401 3 402 Q34 425 63 436 Q92 447 116 447 Q141 447 158 436 Q175 425 187.5 406 Q200 387 209.5 361 Q219 335 229 304 L314 48 L315 48 L402 335 Q404 343 406 353.5 Q408 364 408 369 Q408 396 395.5 408 Q383 420 368.5 424.5 Q354 429 341.5 429.5 Q329 430 329 434 L329 436 L538 436 L538 434 Q538 429 522.5 429.5 Q507 430 485.5 423 Q464 416 441 395 Q418 374 404 327 L318 43 L318 -184 Z " />
<glyph glyph-name="delta" unicode="&#x3b4;" horiz-adv-x="560" d="M281 -7 Q315 -7 339 7.5 Q363 22 378.5 47.5 Q394 73 401.5 107.5 Q409 142 409 181 Q409 213 403.5 245.5 Q398 278 382 310.5 Q366 343 337.5 373.5 Q309 404 263 431 Q237 423 217 401 Q197 379 183.5 347.5 Q170 316 163 277.5 Q156 239 156 199 Q156 152 162.5 114 Q169 76 183.5 49 Q198 22 222 7.5 Q246 -7 281 -7 Z M287 736 Q326 736 358.5 728 Q391 720 415 705.5 Q439 691 452 672 Q465 653 465 631 Q465 608 451.5 593 Q438 578 419 578 Q390 578 376 597.5 Q362 617 362 642 Q362 656 366.5 676.5 Q371 697 383 713 Q367 722 339.5 726.5 Q312 731 290 731 Q268 731 248 725.5 Q228 720 213 709.5 Q198 699 189 683.5 Q180 668 180 647 Q180 618 205.5 594 Q231 570 269 544.5 Q307 519 351 490.5 Q395 462 433 424.5 Q471 387 496.5 338.5 Q522 290 522 226 Q522 182 507 139.5 Q492 97 461.5 63 Q431 29 385 8.5 Q339 -12 278 -12 Q219 -12 174.5 6.5 Q130 25 99.5 56 Q69 87 53.5 127 Q38 167 38 210 Q38 252 52 291.5 Q66 331 94 361.5 Q122 392 163 412 Q204 432 257 435 Q225 453 196 470.5 Q167 488 145.5 508 Q124 528 111.5 551 Q99 574 99 601 Q99 626 110.5 650.5 Q122 675 145 694 Q168 713 203.5 724.5 Q239 736 287 736 Z " />
<glyph glyph-name="epsilon" unicode="&#x3b5;" horiz-adv-x="433" d="M206 235 Q158 237 127 247 Q96 257 79 271 Q62 285 55.5 300.5 Q49 316 49 330 Q49 349 58.5 370.5 Q68 392 90 409 Q112 426 148.5 437.5 Q185 449 240 449 Q309 449 352 424.5 Q395 400 395 362 Q395 340 382 326.5 Q369 313 352 313 Q321 313 306.5 332 Q292 351 292 380 Q292 408 304 437 Q284 442 264 442 Q242 442 222 435 Q202 428 187 414 Q172 400 163.5 380 Q155 360 155 334 Q155 303 167 283.5 Q179 264 199 253 Q219 242 246.5 238 Q274 234 305 234 L305 229 Q227 228 190.5 194 Q154 160 154 103 Q154 75 164 55.5 Q174 36 191 23.5 Q208 11 230 5.5 Q252 0 276 0 Q317 0 354.5 12.5 Q392 25 421 48 L424 44 Q388 15 339.5 1.5 Q291 -12 239 -12 Q197 -12 159.5 -5 Q122 2 94.5 16 Q67 30 51 52.5 Q35 75 35 107 Q35 125 43.5 146 Q52 167 72 185 Q92 203 125 216 Q158 229 206 231 L206 235 Z " />
<glyph glyph-name="zeta" unicode="&#x3b6;" horiz-adv-x="402" d="M276 658 Q333 658 386.5 676.5 Q440 695 477 718 L479 715 Q419 678 358.5 627 Q298 576 249.5 518.5 Q201 461 171 399.5 Q141 338 141 279 Q141 249 148.5 226 Q156 203 172 183.5 Q188 164 213.5 146 Q239 128 274 109 Q304 93 331 77.5 Q358 62 379 46.5 Q400 31 412 13.5 Q424 -4 424 -24 Q424 -45 411 -66 Q398 -87 373.5 -105.5 Q349 -124 314.5 -138.5 Q280 -153 237 -161 L237 -157 Q299 -143 325.5 -122.5 Q352 -102 352 -85 Q352 -66 328.5 -49 Q305 -32 270.5 -14 Q236 4 195 25 Q154 46 119.5 73.5 Q85 101 61.5 136.5 Q38 172 38 219 Q38 260 57 304 Q76 348 107 391.5 Q138 435 178 477 Q218 519 260.5 556.5 Q303 594 344 626 Q385 658 419 681 L417 682 Q397 670 367.5 656.5 Q338 643 305 631.5 Q272 620 239 612.5 Q206 605 178 605 Q134 605 111 624 Q88 643 88 675 Q88 692 95.5 712.5 Q103 733 120 753 L125 753 Q131 704 171 681 Q211 658 276 658 Z " />
<glyph glyph-name="eta" unicode="&#x3b7;" horiz-adv-x="601" d="M504 66 Q504 36 511.5 21 Q519 6 538 6 Q552 6 570 13 Q570 12 570.5 11.5 Q571 11 571 10 Q557 2 529.5 -4 Q502 -10 477 -10 Q457 -10 441.5 -6 Q426 -2 415 8.5 Q404 19 398 37 Q392 55 392 84 L392 350 Q392 387 376.5 410 Q361 433 324 433 Q295 433 265.5 414 Q236 395 219 368 L219 71 Q219 42 229.5 29 Q240 16 253 11.5 Q266 7 276.5 6.5 Q287 6 287 2 L287 0 L31 0 L31 2 Q31 6 43 6.5 Q55 7 69.5 12.5 Q84 18 96 33 Q108 48 108 81 L108 352 Q108 385 96 399 Q84 413 69.5 417.5 Q55 422 43 421.5 Q31 421 31 426 L31 428 L215 448 L218 446 Q216 426 214.5 406.5 Q213 387 211 367 L213 367 Q242 410 283.5 429.5 Q325 449 367 449 Q393 449 418 442 Q443 435 462 419.5 Q481 404 492.5 378 Q504 352 504 315 L504 66 Z " />
<glyph glyph-name="theta" unicode="&#x3b8;" horiz-adv-x="568" d="M38 357 Q38 435 54.5 504 Q71 573 102 624.5 Q133 676 178.5 706 Q224 736 283 736 Q347 736 393.5 706.5 Q440 677 470.5 626 Q501 575 515.5 507 Q530 439 530 362 Q530 286 515 218 Q500 150 469 99 Q438 48 392 18 Q346 -12 285 -12 Q224 -12 177.5 16 Q131 44 100 93.5 Q69 143 53.5 210.5 Q38 278 38 357 Z M286 -7 Q325 -7 349.5 17.5 Q374 42 388 90 Q402 138 407 209.5 Q412 281 412 375 L155 375 Q155 285 160.5 214 Q166 143 180 94 Q194 45 219.5 19 Q245 -7 286 -7 Z M280 731 Q242 731 218.5 704 Q195 677 181 629.5 Q167 582 161.5 518 Q156 454 155 380 L412 380 Q410 463 404 528 Q398 593 383.5 638 Q369 683 344 707 Q319 731 280 731 Z " />
<glyph glyph-name="iota" unicode="&#x3b9;" horiz-adv-x="338" d="M227 65 Q227 36 240 22.5 Q253 9 270 9 Q282 9 294 13 Q294 12 294.5 11.5 Q295 11 295 10 Q281 2 253.5 -4 Q226 -10 201 -10 Q183 -10 167.5 -6.5 Q152 -3 140.5 5.5 Q129 14 122 28.5 Q115 43 115 66 L115 354 Q115 386 102 399.5 Q89 413 73 417.5 Q57 422 44 421.5 Q31 421 31 426 L31 428 L225 449 L228 447 L227 65 Z " />
<glyph glyph-name="kappa" unicode="&#x3ba;" horiz-adv-x="592" d="M20 2 Q20 6 33 6.5 Q46 7 62 12.5 Q78 18 91 33 Q104 48 104 81 L103 351 Q103 384 91 398 Q79 412 65 416.5 Q51 421 39 420.5 Q27 420 27 425 L27 427 L214 447 L216 445 L216 234 L259 234 L361 338 Q376 353 382 365 Q388 377 388 386 Q388 404 375 412 Q362 420 346 423.5 Q330 427 317 428.5 Q304 430 304 434 L304 436 L549 436 L549 434 Q549 429 536.5 429 Q524 429 502 423 Q470 415 435.5 393.5 Q401 372 362 332 L329 298 L456 95 Q481 55 504.5 37 Q528 19 546.5 13 Q565 7 575.5 6.5 Q586 6 585 0 L395 0 L249 229 L216 229 L216 76 Q216 46 229 32 Q242 18 257.5 12.5 Q273 7 286 6.5 Q299 6 299 2 L299 0 L20 0 L20 2 L20 2 Z " />
<glyph glyph-name="lambda" unicode="&#x3bb;" horiz-adv-x="566" d="M140 113 Q128 81 129 61 Q130 41 138 30 Q146 19 159 14 Q172 9 184 7.5 Q196 6 205 5.5 Q214 5 214 2 L214 0 L2 0 L2 2 Q2 7 16 6.5 Q30 6 50 13 Q70 20 93.5 41.5 Q117 63 135 112 L254 429 L190 635 Q179 672 165 684.5 Q151 697 137 697 Q122 697 103 685 Q103 686 102.5 686.5 Q102 687 102 688 Q131 709 159.5 720 Q188 731 211 731 Q246 731 266.5 713.5 Q287 696 300 655 L472 89 Q478 69 484.5 56.5 Q491 44 497.5 37.5 Q504 31 511 29 Q518 27 526 27 Q541 27 562 41 L564 38 Q535 14 507.5 3 Q480 -8 454 -8 Q430 -8 414 -1.5 Q398 5 387 19 Q376 33 368 55 Q360 77 351 107 L256 424 L140 113 Z " />
<glyph glyph-name="nu" unicode="&#x3bd;" horiz-adv-x="556" d="M407 323 Q420 354 420.5 374 Q421 394 413.5 405 Q406 416 394.5 420.5 Q383 425 371.5 427 Q360 429 351.5 429.5 Q343 430 343 434 L343 436 L548 436 L548 434 Q548 429 534 429.5 Q520 430 499.5 422.5 Q479 415 455.5 393.5 Q432 372 412 324 L275 -7 L273 -7 L101 356 Q86 388 68.5 403 Q51 418 37 423.5 Q23 429 14 429.5 Q5 430 5 434 L5 436 L298 436 L298 434 Q298 431 290 430 Q282 429 270.5 427.5 Q259 426 247 422.5 Q235 419 227 411 Q219 403 217.5 388.5 Q216 374 227 351 L327 129 L407 323 Z " />
<glyph glyph-name="xi" unicode="&#x3be;" horiz-adv-x="414" d="M263 419 Q206 423 164.5 437 Q123 451 96 472 Q69 493 56.5 519 Q44 545 44 574 Q44 610 59.5 639.5 Q75 669 102.5 690 Q130 711 169 722.5 Q208 734 256 734 Q296 734 329 725.5 Q362 717 385.5 703 Q409 689 421.5 670 Q434 651 434 630 Q434 604 419.5 589 Q405 574 385 574 Q354 574 341.5 592 Q329 610 329 634 Q329 653 336 673 Q343 693 354 710 Q339 718 316 723 Q293 728 273 728 Q216 728 184 691.5 Q152 655 152 584 Q152 550 163 520.5 Q174 491 200 468.5 Q226 446 268.5 433 Q311 420 373 419 Q373 418 372.5 417 Q372 416 372 415 Q312 415 268.5 402 Q225 389 197 366.5 Q169 344 156 314 Q143 284 143 249 Q143 213 164.5 184.5 Q186 156 218.5 133.5 Q251 111 288.5 91.5 Q326 72 358.5 53 Q391 34 412.5 14 Q434 -6 434 -31 Q434 -49 425 -68 Q416 -87 395.5 -105 Q375 -123 341.5 -140 Q308 -157 260 -172 L258 -168 Q318 -148 339 -130.5 Q360 -113 360 -96 Q360 -77 336 -60 Q312 -43 275.5 -25 Q239 -7 197 14.5 Q155 36 118.5 65 Q82 94 58 131.5 Q34 169 34 219 Q34 250 47.5 282 Q61 314 89 341 Q117 368 159.5 387.5 Q202 407 261 415 L263 419 Z " />
<glyph glyph-name="omicron" unicode="&#x3bf;" horiz-adv-x="559" d="M38 220 Q38 268 54.5 309.5 Q71 351 102 382.5 Q133 414 177.5 432 Q222 450 278 450 Q337 450 382.5 432 Q428 414 458.5 382.5 Q489 351 505 309.5 Q521 268 521 222 Q521 175 504.5 132.5 Q488 90 456.5 58 Q425 26 380 7 Q335 -12 278 -12 Q219 -12 174.5 6.5 Q130 25 99.5 56.5 Q69 88 53.5 130.5 Q38 173 38 220 Z M158 221 Q158 170 162.5 128 Q167 86 180 56 Q193 26 217 9.5 Q241 -7 280 -7 Q318 -7 341.5 10 Q365 27 378.5 57 Q392 87 396.5 128 Q401 169 401 217 Q401 269 395.5 311 Q390 353 376.5 383 Q363 413 339 429 Q315 445 279 445 Q243 445 220 426.5 Q197 408 183 377.5 Q169 347 163.5 306.5 Q158 266 158 221 Z " />
<glyph glyph-name="pi" unicode="&#x3c0;" horiz-adv-x="610" d="M220 431 Q220 340 219.5 251 Q219 162 219 71 Q219 42 229.5 29 Q240 16 253 11.5 Q266 7 276.5 6.5 Q287 6 287 2 L287 0 L31 0 L31 2 Q31 6 43 6.5 Q55 7 69.5 12.5 Q84 18 96 33 Q108 48 108 81 L108 431 L31 431 L31 436 L580 436 L580 431 L504 431 L504 69 Q504 9 545 9 Q557 9 570 13 Q570 12 570.5 11 Q571 10 571 9 Q556 1 528.5 -4.5 Q501 -10 478 -10 Q455 -10 439 -6 Q423 -2 412.5 11 Q402 24 397 47 Q392 70 392 108 L392 431 L220 431 Z " />
<glyph glyph-name="rho" unicode="&#x3c1;" horiz-adv-x="566" d="M406 217 Q406 280 396.5 323.5 Q387 367 370 394 Q353 421 330.5 433 Q308 445 281 445 Q217 445 188 400 Q159 355 159 274 L159 25 Q179 11 207.5 3 Q236 -5 266 -5 Q339 -5 372.5 52 Q406 109 406 217 Z M48 216 Q48 263 63.5 305.5 Q79 348 109.5 380 Q140 412 184.5 431 Q229 450 287 450 Q343 450 387.5 433.5 Q432 417 463 386.5 Q494 356 510.5 313 Q527 270 527 217 Q527 170 511 128.5 Q495 87 464.5 55.5 Q434 24 389.5 6 Q345 -12 289 -12 Q262 -12 226.5 -6.5 Q191 -1 159 19 L159 -182 Q132 -186 104 -199 Q76 -212 53 -238 L48 -238 L48 216 Z " />
<glyph glyph-name="sigma1" unicode="&#x3c2;" horiz-adv-x="456" d="M270 449 Q348 449 390.5 423.5 Q433 398 433 353 Q433 333 418 318.5 Q403 304 384 304 Q352 304 339 322 Q326 340 326 366 Q326 383 330.5 401 Q335 419 342 435 Q331 440 316 441.5 Q301 443 290 443 Q254 443 226.5 429.5 Q199 416 181 394 Q163 372 153.5 342.5 Q144 313 144 282 Q144 240 163.5 208.5 Q183 177 212.5 152 Q242 127 276.5 107 Q311 87 340.5 68 Q370 49 389.5 29 Q409 9 409 -15 Q409 -54 369 -91 Q329 -128 243 -151 Q243 -150 242.5 -149 Q242 -148 242 -147 Q274 -137 293 -127.5 Q312 -118 322 -109 Q332 -100 335 -92 Q338 -84 338 -76 Q338 -61 316 -45.5 Q294 -30 260.5 -12 Q227 6 188 28.5 Q149 51 115.5 80 Q82 109 60 146 Q38 183 38 230 Q38 281 55.5 321.5 Q73 362 104.5 390.5 Q136 419 178 434 Q220 449 270 449 Z " />
<glyph glyph-name="sigma" unicode="&#x3c3;" horiz-adv-x="560" d="M38 212 Q38 260 54.5 301 Q71 342 102 372 Q133 402 176.5 419 Q220 436 274 436 L530 436 L530 431 L372 431 Q372 429 371 429 Q415 414 444 388.5 Q473 363 490 333 Q507 303 513.5 272 Q520 241 520 216 Q520 174 504 133 Q488 92 456.5 60 Q425 28 379.5 8.5 Q334 -11 275 -11 Q218 -11 173.5 7.5 Q129 26 99 57 Q69 88 53.5 128.5 Q38 169 38 212 Z M279 431 Q242 431 219 411.5 Q196 392 182.5 360.5 Q169 329 164 290.5 Q159 252 159 214 Q159 169 163.5 129 Q168 89 180.5 58.5 Q193 28 216.5 10.5 Q240 -7 278 -7 Q315 -7 339 11 Q363 29 377 59.5 Q391 90 396 129 Q401 168 401 210 Q401 250 396.5 290 Q392 330 379 361 Q366 392 342 411.5 Q318 431 279 431 Z " />
<glyph glyph-name="tau" unicode="&#x3c4;" horiz-adv-x="385" d="M234 -11 Q199 -11 177 -3 Q155 5 142.5 19.5 Q130 34 125.5 53.5 Q121 73 121 97 L121 431 L8 431 L8 436 L367 436 L367 431 L232 431 L232 69 Q232 38 243.5 21.5 Q255 5 286 5 Q300 5 321.5 11.5 Q343 18 369 33 L371 30 Q330 4 294 -3.5 Q258 -11 234 -11 Z " />
<glyph glyph-name="upsilon" unicode="&#x3c5;" horiz-adv-x="588" d="M103 353 Q103 385 89.5 399 Q76 413 60.5 417.5 Q45 422 31.5 421.5 Q18 421 18 426 L18 428 L211 448 L214 446 L214 118 Q214 46 234 19.5 Q254 -7 298 -7 Q333 -7 357 12.5 Q381 32 396 64.5 Q411 97 417.5 139.5 Q424 182 424 228 Q424 259 422.5 295.5 Q421 332 413.5 364 Q406 396 391.5 421 Q377 446 352 455 L352 456 Q352 457 352.5 457 Q353 457 353 458 Q404 451 440 428 Q476 405 499 373.5 Q522 342 532.5 305.5 Q543 269 543 236 Q543 191 528 146.5 Q513 102 482 67 Q451 32 404 10 Q357 -12 294 -12 Q251 -12 216 -1.5 Q181 9 156 32.5 Q131 56 117 92.5 Q103 129 103 181 L103 353 Z " />
<glyph glyph-name="phi" unicode="&#x3c6;" horiz-adv-x="685" d="M447 444 Q429 444 418 436 Q407 428 401 416 Q395 404 393 389.5 Q391 375 391 362 L391 -9 Q433 -4 459.5 20 Q486 44 501 78 Q516 112 521 151 Q526 190 526 225 Q526 267 523.5 306 Q521 345 513 376 Q505 407 489.5 425.5 Q474 444 447 444 Z M391 -15 Q391 -26 391 -50 Q391 -74 391.5 -100.5 Q392 -127 392 -151 Q392 -175 392 -185 Q361 -190 334.5 -204 Q308 -218 288 -243 L282 -243 Q282 -229 282 -197 Q282 -165 282.5 -129 Q283 -93 283 -61 Q283 -29 283 -15 Q220 -12 174 8 Q128 28 97.5 59.5 Q67 91 52.5 131.5 Q38 172 38 217 Q38 254 49.5 291.5 Q61 329 86 361 Q111 393 150 416.5 Q189 440 245 451 L245 449 Q245 448 246 447 Q200 427 179 371.5 Q158 316 158 215 Q158 174 163 135.5 Q168 97 182 65.5 Q196 34 220.5 14 Q245 -6 283 -9 L283 198 Q283 251 292 297 Q301 343 321 376.5 Q341 410 373 429.5 Q405 449 452 449 Q496 449 532 433 Q568 417 593.5 388.5 Q619 360 632.5 320.5 Q646 281 646 234 Q646 190 630.5 147.5 Q615 105 583 71 Q551 37 503 14 Q455 -9 391 -15 Z " />
<glyph glyph-name="chi" unicode="&#x3c7;" horiz-adv-x="572" d="M235 189 L180 111 Q166 90 156.5 72.5 Q147 55 147 44 Q147 27 158.5 19.5 Q170 12 183.5 9 Q197 6 208.5 5.5 Q220 5 220 2 L220 0 L8 0 Q6 6 18.5 5.5 Q31 5 53.5 11.5 Q76 18 106 38 Q136 58 170 105 L233 193 L117 361 Q96 391 77.5 405 Q59 419 45 424 Q31 429 23 429.5 Q15 430 15 434 L15 436 L299 436 L299 434 Q299 431 288.5 429.5 Q278 428 266 425 Q254 422 243.5 415 Q233 408 233 393 Q233 384 239.5 371.5 Q246 359 258 341 L316 257 L364 323 Q380 344 389 363.5 Q398 383 398 394 Q398 410 386.5 417 Q375 424 360.5 426.5 Q346 429 334.5 429.5 Q323 430 323 434 L323 436 L539 436 Q540 430 527.5 430.5 Q515 431 492.5 424 Q470 417 439.5 397 Q409 377 375 331 L318 253 L442 75 Q462 46 484 32.5 Q506 19 524 13.5 Q542 8 553.5 7 Q565 6 565 2 L565 0 L253 0 L253 2 Q253 5 265 6.5 Q277 8 291 11 Q305 14 317 19.5 Q329 25 329 37 Q329 45 325 55.5 Q321 66 311 80 L235 189 Z " />
<glyph glyph-name="psi" unicode="&#x3c8;" horiz-adv-x="732" d="M429 -139 Q429 -170 441.5 -183.5 Q454 -197 469 -202.5 Q484 -208 496.5 -208.5 Q509 -209 509 -213 L509 -215 L242 -215 L242 -213 Q242 -209 254 -208.5 Q266 -208 281 -202.5 Q296 -197 308 -182 Q320 -167 320 -134 L320 -11 Q203 -1 145.5 61.5 Q88 124 88 230 L88 353 Q88 385 75 399 Q62 413 47 417.5 Q32 422 19 421.5 Q6 421 6 426 L6 428 L194 448 L196 446 L196 180 Q196 147 199 115.5 Q202 84 214 58 Q226 32 251 14.5 Q276 -3 320 -7 L320 479 Q320 512 308.5 526 Q297 540 283.5 544.5 Q270 549 258.5 548.5 Q247 548 247 553 L247 555 L427 575 L429 573 L429 -8 Q471 -4 495 12 Q519 28 531 52.5 Q543 77 546 109.5 Q549 142 549 180 L549 323 Q549 352 551 375.5 Q553 399 561.5 415 Q570 431 587 439.5 Q604 448 634 448 Q655 448 678.5 442.5 Q702 437 718 431 Q718 430 717.5 429.5 Q717 429 717 428 Q713 429 710 429.5 Q707 430 704 430 Q689 430 679.5 423.5 Q670 417 665 406.5 Q660 396 658.5 382 Q657 368 657 352 L657 241 Q657 132 601 65 Q545 -2 429 -11 L429 -139 Z " />
<glyph glyph-name="omega" unicode="&#x3c9;" horiz-adv-x="752" d="M243 -7 Q288 -7 308.5 26 Q329 59 329 130 L329 243 Q329 275 317.5 288.5 Q306 302 292 306 Q278 310 266.5 310 Q255 310 255 315 L255 316 L434 338 L437 336 L437 226 Q437 136 399 77 Q411 39 439 17 Q467 -5 501 -5 Q551 -5 572 53 Q593 111 593 212 Q593 249 591.5 286.5 Q590 324 582.5 356 Q575 388 560 410.5 Q545 433 517 440 Q517 443 519 445 Q565 438 601.5 417 Q638 396 663 365 Q688 334 701 295.5 Q714 257 714 215 Q714 172 701 131.5 Q688 91 662.5 59.5 Q637 28 598 8.5 Q559 -11 508 -11 Q473 -11 442 10 Q411 31 396 73 Q368 29 327 8.5 Q286 -12 244 -12 Q188 -12 149 6.5 Q110 25 85.5 56 Q61 87 49.5 127 Q38 167 38 211 Q38 254 51 293.5 Q64 333 89 364.5 Q114 396 150.5 417.5 Q187 439 233 446 L233 444 Q233 443 234 442 Q208 435 193 410.5 Q178 386 170.5 352.5 Q163 319 161 281.5 Q159 244 159 212 Q159 159 162 118 Q165 77 174 49.5 Q183 22 199.5 7.5 Q216 -7 243 -7 Z " />
<glyph glyph-name="iotadieresis" unicode="&#x3ca;" horiz-adv-x="338" d="M227 65 Q227 36 240 22.5 Q253 9 270 9 Q282 9 294 13 Q294 12 294.5 11.5 Q295 11 295 10 Q281 2 253.5 -4 Q226 -10 201 -10 Q183 -10 167.5 -6.5 Q152 -3 140.5 5.5 Q129 14 122 28.5 Q115 43 115 66 L115 354 Q115 386 102 399.5 Q89 413 73 417.5 Q57 422 44 421.5 Q31 421 31 426 L31 428 L225 449 L228 447 L227 65 Z M67 650 Q90 650 106.5 633.5 Q123 617 123 594 Q123 571 106.5 555 Q90 539 67 539 Q44 539 27.5 555 Q11 571 11 594 Q11 617 27.5 633.5 Q44 650 67 650 Z M252 650 Q275 650 291 633.5 Q307 617 307 594 Q307 571 291 555 Q275 539 252 539 Q228 539 212 555 Q196 571 196 594 Q196 617 212 633.5 Q228 650 252 650 Z " />
<glyph glyph-name="upsilondieresis" unicode="&#x3cb;" horiz-adv-x="588" d="M103 353 Q103 385 89.5 399 Q76 413 60.5 417.5 Q45 422 31.5 421.5 Q18 421 18 426 L18 428 L211 448 L214 446 L214 118 Q214 46 234 19.5 Q254 -7 298 -7 Q333 -7 357 12.5 Q381 32 396 64.5 Q411 97 417.5 139.5 Q424 182 424 228 Q424 259 422.5 295.5 Q421 332 413.5 364 Q406 396 391.5 421 Q377 446 352 455 L352 456 Q352 457 352.5 457 Q353 457 353 458 Q404 451 440 428 Q476 405 499 373.5 Q522 342 532.5 305.5 Q543 269 543 236 Q543 191 528 146.5 Q513 102 482 67 Q451 32 404 10 Q357 -12 294 -12 Q251 -12 216 -1.5 Q181 9 156 32.5 Q131 56 117 92.5 Q103 129 103 181 L103 353 Z M197 650 Q220 650 236.5 633.5 Q253 617 253 594 Q253 571 236.5 555 Q220 539 197 539 Q174 539 157.5 555 Q141 571 141 594 Q141 617 157.5 633.5 Q174 650 197 650 Z M382 650 Q405 650 421 633.5 Q437 617 437 594 Q437 571 421 555 Q405 539 382 539 Q358 539 342 555 Q326 571 326 594 Q326 617 342 633.5 Q358 650 382 650 Z " />
<glyph glyph-name="omicrontonos" unicode="&#x3cc;" horiz-adv-x="559" d="M38 220 Q38 268 54.5 309.5 Q71 351 102 382.5 Q133 414 177.5 432 Q222 450 278 450 Q337 450 382.5 432 Q428 414 458.5 382.5 Q489 351 505 309.5 Q521 268 521 222 Q521 175 504.5 132.5 Q488 90 456.5 58 Q425 26 380 7 Q335 -12 278 -12 Q219 -12 174.5 6.5 Q130 25 99.5 56.5 Q69 88 53.5 130.5 Q38 173 38 220 Z M158 221 Q158 170 162.5 128 Q167 86 180 56 Q193 26 217 9.5 Q241 -7 280 -7 Q318 -7 341.5 10 Q365 27 378.5 57 Q392 87 396.5 128 Q401 169 401 217 Q401 269 395.5 311 Q390 353 376.5 383 Q363 413 339 429 Q315 445 279 445 Q243 445 220 426.5 Q197 408 183 377.5 Q169 347 163.5 306.5 Q158 266 158 221 Z M225 504 Q267 539 285 573 Q303 607 313 633.5 Q323 660 332 676 Q341 692 365 692 Q385 692 395.5 680 Q406 668 406 654 Q406 642 395.5 623.5 Q385 605 363.5 583.5 Q342 562 308 540.5 Q274 519 227 501 L225 504 Z " />
<glyph glyph-name="upsilontonos" unicode="&#x3cd;" horiz-adv-x="588" d="M232 504 Q274 539 292 573 Q310 607 320 633.5 Q330 660 339 676 Q348 692 372 692 Q392 692 402.5 680 Q413 668 413 654 Q413 642 402.5 623.5 Q392 605 370.5 583.5 Q349 562 315 540.5 Q281 519 234 501 L232 504 Z M103 353 Q103 385 89.5 399 Q76 413 60.5 417.5 Q45 422 31.5 421.5 Q18 421 18 426 L18 428 L211 448 L214 446 L214 118 Q214 46 234 19.5 Q254 -7 298 -7 Q333 -7 357 12.5 Q381 32 396 64.5 Q411 97 417.5 139.5 Q424 182 424 228 Q424 259 422.5 295.5 Q421 332 413.5 364 Q406 396 391.5 421 Q377 446 352 455 L352 456 Q352 457 352.5 457 Q353 457 353 458 Q404 451 440 428 Q476 405 499 373.5 Q522 342 532.5 305.5 Q543 269 543 236 Q543 191 528 146.5 Q513 102 482 67 Q451 32 404 10 Q357 -12 294 -12 Q251 -12 216 -1.5 Q181 9 156 32.5 Q131 56 117 92.5 Q103 129 103 181 L103 353 Z " />
<glyph glyph-name="omegatonos" unicode="&#x3ce;" horiz-adv-x="752" d="M243 -7 Q288 -7 308.5 26 Q329 59 329 130 L329 243 Q329 275 317.5 288.5 Q306 302 292 306 Q278 310 266.5 310 Q255 310 255 315 L255 316 L434 338 L437 336 L437 226 Q437 136 399 77 Q411 39 439 17 Q467 -5 501 -5 Q551 -5 572 53 Q593 111 593 212 Q593 249 591.5 286.5 Q590 324 582.5 356 Q575 388 560 410.5 Q545 433 517 440 Q517 443 519 445 Q565 438 601.5 417 Q638 396 663 365 Q688 334 701 295.5 Q714 257 714 215 Q714 172 701 131.5 Q688 91 662.5 59.5 Q637 28 598 8.5 Q559 -11 508 -11 Q473 -11 442 10 Q411 31 396 73 Q368 29 327 8.5 Q286 -12 244 -12 Q188 -12 149 6.5 Q110 25 85.5 56 Q61 87 49.5 127 Q38 167 38 211 Q38 254 51 293.5 Q64 333 89 364.5 Q114 396 150.5 417.5 Q187 439 233 446 L233 444 Q233 443 234 442 Q208 435 193 410.5 Q178 386 170.5 352.5 Q163 319 161 281.5 Q159 244 159 212 Q159 159 162 118 Q165 77 174 49.5 Q183 22 199.5 7.5 Q216 -7 243 -7 Z M315 504 Q357 539 375 573 Q393 607 403 633.5 Q413 660 422 676 Q431 692 455 692 Q475 692 485.5 680 Q496 668 496 654 Q496 642 485.5 623.5 Q475 605 453.5 583.5 Q432 562 398 540.5 Q364 519 317 501 L315 504 Z " />
<glyph glyph-name="Scaron" unicode="&#x160;" horiz-adv-x="591" d="M285 -12 Q252 -12 219 -5.5 Q186 1 157 3 Q128 5 103 -4.5 Q78 -14 62 -45 L59 -45 L44 265 L46 265 Q49 265 51 257.5 Q53 250 57 236 Q74 173 94 127.5 Q114 82 140 52.5 Q166 23 200.5 8.5 Q235 -6 282 -6 Q321 -6 349.5 4.5 Q378 15 396 33 Q414 51 423 74.5 Q432 98 432 124 Q432 161 416 189 Q400 217 374.5 239.5 Q349 262 315.5 280 Q282 298 247.5 315.5 Q213 333 180 351.5 Q147 370 121.5 393.5 Q96 417 80 447 Q64 477 64 517 Q64 560 81 591.5 Q98 623 128 643.5 Q158 664 198 674 Q238 684 283 684 Q312 684 341 678 Q370 672 396.5 670 Q423 668 444.5 676 Q466 684 480 713 L483 713 L498 451 L496 451 Q492 451 484 480 Q470 533 448 570.5 Q426 608 399.5 632 Q373 656 344 667 Q315 678 288 678 Q233 678 205.5 647.5 Q178 617 178 575 Q178 535 205 506.5 Q232 478 273 454 Q314 430 361.5 407 Q409 384 450 354 Q491 324 518 284 Q545 244 545 187 Q545 142 527.5 105 Q510 68 476.5 42 Q443 16 394.5 2 Q346 -12 285 -12 Z M272 809 Q310 827 347 846 Q384 865 421 883 L424 880 L285 737 Q277 729 273 729 Q268 729 259 738 Q221 777 186.5 811 Q152 845 117 879 L121 883 L272 809 Z " />
<glyph glyph-name="Zcaron" unicode="&#x17d;" horiz-adv-x="666" d="M358 4 Q409 4 448.5 16.5 Q488 29 520 58 Q552 87 579.5 134.5 Q607 182 633 252 Q635 259 637.5 264 Q640 269 643 269 L645 269 L592 -34 Q547 -15 494 -7.5 Q441 0 384 0 L19 0 L19 4 L457 669 L305 669 Q255 669 219 656.5 Q183 644 156 618 Q129 592 108.5 553 Q88 514 69 462 Q67 456 66 452.5 Q65 449 60 450 Q67 516 72 559 Q77 602 80 630.5 Q83 659 85 677 Q87 695 89 711 Q140 689 190 681.5 Q240 674 294 674 L608 674 L608 669 L178 4 L358 4 Z M350 809 Q388 827 425 846 Q462 865 499 883 L502 880 L363 737 Q355 729 351 729 Q346 729 337 738 Q299 777 264.5 811 Q230 845 195 879 L199 883 L350 809 Z " />
<glyph glyph-name="zcaron" unicode="&#x17e;" horiz-adv-x="473" d="M238 4 Q280 4 312 12.5 Q344 21 368 40.5 Q392 60 409 90.5 Q426 121 439 165 Q443 178 447 178 L448 178 L418 -25 Q382 -10 339.5 -5 Q297 0 245 0 L22 0 L22 4 L305 431 L250 431 Q211 431 181.5 425 Q152 419 128.5 403 Q105 387 87.5 359.5 Q70 332 55 290 Q53 284 51.5 281 Q50 278 47 278 L46 278 L75 460 Q110 446 151.5 441 Q193 436 241 436 L434 436 L434 431 Q423 413 401 379.5 Q379 346 352 304.5 Q325 263 295.5 217.5 Q266 172 239 130.5 Q212 89 190 55.5 Q168 22 157 4 L238 4 Z M403 677 L407 674 L268 515 Q260 506 254 506 Q250 506 241 515 L100 674 L103 677 L255 587 L403 677 Z " />
<glyph glyph-name="Ydieresis" unicode="&#x178;" horiz-adv-x="696" d="M410 118 Q410 84 418.5 63 Q427 42 440.5 30.5 Q454 19 469 14.5 Q484 10 497.5 8 Q511 6 519.5 5.5 Q528 5 528 1 L528 0 L163 0 L163 1 Q163 5 171.5 5.5 Q180 6 193.5 8 Q207 10 222 14.5 Q237 19 250.5 30.5 Q264 42 272.5 63 Q281 84 281 118 L281 288 L108 596 Q90 627 71.5 641 Q53 655 37 660 Q21 665 11.5 666 Q2 667 2 671 L2 673 L335 673 L335 671 Q335 667 320.5 666 Q306 665 288.5 661 Q271 657 256.5 648.5 Q242 640 242 622 Q242 611 248 597 Q254 583 265 563 L407 314 L531 550 Q541 568 544.5 582.5 Q548 597 548 608 Q548 632 533 643.5 Q518 655 500.5 659.5 Q483 664 468 665.5 Q453 667 453 671 L453 673 L692 673 Q693 667 679 666.5 Q665 666 642 657.5 Q619 649 591 626 Q563 603 537 552 L410 309 L410 118 Z M268 849 Q291 849 307.5 833 Q324 817 324 794 Q324 771 307.5 754.5 Q291 738 268 738 Q245 738 228.5 754.5 Q212 771 212 794 Q212 817 228.5 833 Q245 849 268 849 Z M453 849 Q476 849 492 833 Q508 817 508 794 Q508 771 492 754.5 Q476 738 453 738 Q429 738 413 754.5 Q397 771 397 794 Q397 817 413 833 Q429 849 453 849 Z " />
<glyph glyph-name="divide" unicode="&#xf7;" horiz-adv-x="554" d="M281 385 Q258 385 242 401 Q226 417 226 440 Q226 463 242 479.5 Q258 496 281 496 Q304 496 320.5 479.5 Q337 463 337 440 Q337 417 320.5 401 Q304 385 281 385 Z M281 89 Q258 89 242 105 Q226 121 226 144 Q226 167 242 183.5 Q258 200 281 200 Q305 200 321 183.5 Q337 167 337 144 Q337 121 321 105 Q305 89 281 89 Z M73 303 L489 303 L489 287 L73 287 L73 303 Z " />
<glyph glyph-name="zero.numerator" unicode="&#xe2d0;" horiz-adv-x="360" d="M22 491 Q22 525 30.5 560.5 Q39 596 57.5 625 Q76 654 106 672 Q136 690 179 690 Q223 690 253 672 Q283 654 301.5 625.5 Q320 597 328 562 Q336 527 336 492 Q336 460 327.5 424.5 Q319 389 300 359.5 Q281 330 251.5 311 Q222 292 179 292 Q135 292 105.5 309.5 Q76 327 57 355.5 Q38 384 30 419.5 Q22 455 22 491 Z M103 491 Q103 397 120.5 347 Q138 297 180 297 Q221 297 237.5 350 Q254 403 254 491 Q254 584 238 635 Q222 686 179 686 Q158 686 143.5 671 Q129 656 120 629.5 Q111 603 107 567.5 Q103 532 103 491 Z " />
<glyph glyph-name="one.numerator" unicode="&#xe2d1;" horiz-adv-x="360" d="M144 652 Q127 646 108 641 Q89 636 69 633 L68 637 Q107 645 145.5 658 Q184 671 218 694 L221 694 L221 349 Q221 330 231 322 Q241 314 252.5 311 Q264 308 274 307.5 Q284 307 284 303 L284 300 L75 300 L75 303 Q75 306 86 307 Q97 308 109.5 311.5 Q122 315 133 324 Q144 333 144 352 L144 652 L144 652 Z " />
<glyph glyph-name="two.numerator" unicode="&#xe2d2;" horiz-adv-x="360" d="M7 300 Q23 324 45.5 345 Q68 366 92 386.5 Q116 407 139.5 428.5 Q163 450 181.5 474 Q200 498 211.5 527 Q223 556 223 591 Q223 628 203.5 655.5 Q184 683 143 683 Q126 683 110.5 679 Q95 675 78 665 Q89 657 95 645.5 Q101 634 101 622 Q101 605 91 592 Q81 579 62 579 Q44 579 37 588.5 Q30 598 30 609 Q30 619 37 633 Q44 647 60 660 Q76 673 100.5 682 Q125 691 161 691 Q200 691 227.5 682.5 Q255 674 272.5 660 Q290 646 297.5 628.5 Q305 611 305 593 Q305 567 292 543.5 Q279 520 257.5 499 Q236 478 209.5 458.5 Q183 439 156 421 Q129 403 104.5 386 Q80 369 63 353 L196 353 Q223 353 242.5 354.5 Q262 356 277.5 363 Q293 370 306.5 384.5 Q320 399 335 425 Q337 427 338 429 Q339 431 342 431 L343 431 L307 300 L7 300 Z " />
<glyph glyph-name="three.numerator" unicode="&#xe2d3;" horiz-adv-x="360" d="M162 294 Q99 294 60 317.5 Q21 341 21 377 Q21 400 41 416.5 Q61 433 92 438 L95 434 Q90 423 88 408.5 Q86 394 86 382 Q86 366 89.5 351 Q93 336 101 324.5 Q109 313 123 306 Q137 299 157 299 Q180 299 196 308 Q212 317 221.5 331 Q231 345 235.5 363.5 Q240 382 240 401 Q240 453 210.5 479.5 Q181 506 132 506 Q112 506 94 503 Q94 505 93.5 505.5 Q93 506 93 508 Q132 512 157 522 Q182 532 195.5 546 Q209 560 214 576.5 Q219 593 219 610 Q219 644 198 664.5 Q177 685 148 685 Q137 685 124 682.5 Q111 680 100 675 Q110 664 113.5 652 Q117 640 117 629 Q117 616 106.5 601.5 Q96 587 74 587 Q58 587 48.5 596.5 Q39 606 39 619 Q39 628 45.5 640.5 Q52 653 66.5 664.5 Q81 676 105 683.5 Q129 691 165 691 Q206 691 233 682.5 Q260 674 275.5 661 Q291 648 297 633.5 Q303 619 303 606 Q303 577 274.5 550 Q246 523 183 512 Q211 509 236.5 501 Q262 493 281 480.5 Q300 468 311.5 449.5 Q323 431 323 407 Q323 381 310.5 360.5 Q298 340 276 325 Q254 310 224.5 302 Q195 294 162 294 Z " />
<glyph glyph-name="four.numerator" unicode="&#xe2d4;" horiz-adv-x="360" d="M283 349 Q283 330 293 322 Q303 314 315.5 311 Q328 308 338 307.5 Q348 307 348 303 L348 300 L138 300 L138 303 Q138 306 148.5 307 Q159 308 171.5 311.5 Q184 315 194.5 324 Q205 333 205 352 L205 408 L8 408 Q6 408 6 412 Q60 481 107.5 549 Q155 617 190 683 L285 683 Q252 635 215.5 594 Q179 553 144 519.5 Q109 486 76 459.5 Q43 433 16 414 L205 414 L205 504 Q230 509 247 520 Q264 531 279 548 L283 548 L283 414 L342 414 L342 408 L283 408 L283 349 L283 349 Z " />
<glyph glyph-name="five.numerator" unicode="&#xe2d5;" horiz-adv-x="360" d="M155 296 Q94 296 55.5 319 Q17 342 17 378 Q17 401 36 417.5 Q55 434 88 439 L91 435 Q86 424 84 410 Q82 396 82 384 Q82 369 85.5 354 Q89 339 97 327 Q105 315 119 307.5 Q133 300 153 300 Q176 300 192 310 Q208 320 217.5 336 Q227 352 231.5 372 Q236 392 236 412 Q236 464 209.5 492 Q183 520 138 520 Q116 520 98.5 515.5 Q81 511 67 505 Q65 505 64.5 505.5 Q64 506 62 506 L90 681 L240 681 Q266 681 283 685 Q300 689 313 711 Q318 719 320 719 L322 719 L296 617 Q280 620 255.5 622 Q231 624 202.5 625 Q174 626 144 626.5 Q114 627 87 627 L69 512 Q93 525 122.5 530.5 Q152 536 176 536 Q206 536 231.5 527.5 Q257 519 276.5 503.5 Q296 488 307 466.5 Q318 445 318 419 Q318 394 307.5 372 Q297 350 277 333 Q257 316 226 306 Q195 296 155 296 Z " />
<glyph glyph-name="six.numerator" unicode="&#xe2d6;" horiz-adv-x="360" d="M333 425 Q333 401 322.5 377 Q312 353 292.5 334.5 Q273 316 244 304.5 Q215 293 178 293 Q137 293 108 304.5 Q79 316 60.5 335.5 Q42 355 33.5 380.5 Q25 406 25 434 Q25 481 45.5 522 Q66 563 101.5 596 Q137 629 183.5 653 Q230 677 282 690 Q283 689 283 688 Q283 686 284 686 Q189 658 148.5 593.5 Q108 529 108 435 Q108 406 111 381.5 Q114 357 122 338.5 Q130 320 144 309.5 Q158 299 181 299 Q203 299 216.5 309.5 Q230 320 237.5 337.5 Q245 355 248 377 Q251 399 251 422 Q251 439 247 458 Q243 477 234 492.5 Q225 508 210 518.5 Q195 529 174 529 Q161 529 146 525 L145 530 Q162 537 177.5 538.5 Q193 540 207 540 Q262 540 297.5 508 Q333 476 333 425 Z " />
<glyph glyph-name="seven.numerator" unicode="&#xe2d7;" horiz-adv-x="360" d="M171 630 Q144 630 125 628.5 Q106 627 91.5 621 Q77 615 66 603 Q55 591 44 570 Q41 565 39.5 562.5 Q38 560 33 562 L71 693 Q96 690 129.5 687.5 Q163 685 199.5 684 Q236 683 272.5 682.5 Q309 682 340 682 L341 680 Q316 637 294.5 595 Q273 553 253 507.5 Q233 462 212.5 411 Q192 360 170 300 L72 300 Q126 391 187.5 474.5 Q249 558 306 630 L171 630 Z " />
<glyph glyph-name="eight.numerator" unicode="&#xe2d8;" horiz-adv-x="360" d="M220 520 Q240 540 245.5 561.5 Q251 583 251 600 Q251 638 231 660.5 Q211 683 177 683 Q149 683 129.5 668 Q110 653 110 621 Q110 604 120.5 589 Q131 574 147 561.5 Q163 549 182.5 538 Q202 527 220 520 Z M142 488 Q127 486 117 475 Q107 464 101 450.5 Q95 437 93 423 Q91 409 91 400 Q91 382 95.5 364 Q100 346 111 331.5 Q122 317 140 308.5 Q158 300 185 300 Q226 300 244.5 320.5 Q263 341 263 367 Q263 388 251.5 405.5 Q240 423 222 438 Q204 453 182.5 465.5 Q161 478 142 488 Z M29 392 Q29 426 54.5 454.5 Q80 483 129 496 Q97 515 73.5 536.5 Q50 558 50 589 Q50 635 86.5 662 Q123 689 182 689 Q208 689 231.5 683 Q255 677 273 666 Q291 655 301.5 637.5 Q312 620 312 598 Q312 572 292 547.5 Q272 523 232 513 Q251 502 269 491 Q287 480 301.5 466.5 Q316 453 324.5 437 Q333 421 333 401 Q333 377 321.5 357 Q310 337 289.5 323 Q269 309 240.5 301.5 Q212 294 178 294 Q148 294 121 300 Q94 306 73.5 318 Q53 330 41 348.5 Q29 367 29 392 Z " />
<glyph glyph-name="nine.numerator" unicode="&#xe2d9;" horiz-adv-x="360" d="M24 560 Q24 584 34.5 607.5 Q45 631 64.5 649.5 Q84 668 113 679.5 Q142 691 180 691 Q220 691 249 679.5 Q278 668 297 648.5 Q316 629 324.5 603.5 Q333 578 333 550 Q333 501 312 460 Q291 419 256 386.5 Q221 354 174 330.5 Q127 307 75 294 L73 299 Q168 327 208.5 392 Q249 457 249 549 Q249 579 246 604 Q243 629 235 647 Q227 665 212.5 675.5 Q198 686 176 686 Q155 686 141.5 675 Q128 664 120.5 646.5 Q113 629 110 607 Q107 585 107 563 Q107 545 111 526.5 Q115 508 124 493 Q133 478 147.5 468 Q162 458 184 458 Q196 458 211 462 L212 458 Q195 450 180 448 Q165 446 150 446 Q95 446 59.5 477.5 Q24 509 24 560 Z " />
<glyph glyph-name="zero.denominator" unicode="&#xe2f4;" horiz-adv-x="360" d="M22 191 Q22 225 30.5 260.5 Q39 296 57.5 325 Q76 354 106 372 Q136 390 179 390 Q223 390 253 372 Q283 354 301.5 325.5 Q320 297 328 262 Q336 227 336 192 Q336 160 327.5 124.5 Q319 89 300 59.5 Q281 30 251.5 11 Q222 -8 179 -8 Q135 -8 105.5 9.5 Q76 27 57 55.5 Q38 84 30 119.5 Q22 155 22 191 Z M103 191 Q103 97 120.5 47 Q138 -3 180 -3 Q221 -3 237.5 50 Q254 103 254 191 Q254 284 238 335 Q222 386 179 386 Q158 386 143.5 371 Q129 356 120 329.5 Q111 303 107 267.5 Q103 232 103 191 Z " />
<glyph glyph-name="one.denominator" unicode="&#xe2f5;" horiz-adv-x="360" d="M144 352 Q127 346 108 341 Q89 336 69 333 L68 337 Q107 345 145.5 358 Q184 371 218 394 L221 394 L221 49 Q221 30 231 22 Q241 14 252.5 11 Q264 8 274 7.5 Q284 7 284 3 L284 0 L75 0 L75 3 Q75 6 86 7 Q97 8 109.5 11.5 Q122 15 133 24 Q144 33 144 52 L144 352 L144 352 Z " />
<glyph glyph-name="two.denominator" unicode="&#xe2f6;" horiz-adv-x="360" d="M8 0 Q24 24 46.5 45 Q69 66 93 86.5 Q117 107 140.5 128.5 Q164 150 182.5 174 Q201 198 212.5 227 Q224 256 224 291 Q224 328 204.5 355.5 Q185 383 144 383 Q127 383 111.5 379 Q96 375 79 365 Q90 357 96 345.5 Q102 334 102 322 Q102 305 92 292 Q82 279 63 279 Q45 279 38 288.5 Q31 298 31 309 Q31 319 38 333 Q45 347 61 360 Q77 373 101.5 382 Q126 391 162 391 Q201 391 228.5 382.5 Q256 374 273.5 360 Q291 346 298.5 328.5 Q306 311 306 293 Q306 267 293 243.5 Q280 220 258.5 199 Q237 178 210.5 158.5 Q184 139 157 121 Q130 103 105.5 86 Q81 69 64 53 L197 53 Q224 53 243.5 54.5 Q263 56 278.5 63 Q294 70 307.5 84.5 Q321 99 336 125 Q338 127 339 129 Q340 131 343 131 L344 131 L308 0 L8 0 Z " />
<glyph glyph-name="three.denominator" unicode="&#xe2f7;" horiz-adv-x="360" d="M162 -6 Q99 -6 60 17.5 Q21 41 21 77 Q21 100 41 116.5 Q61 133 92 138 L95 134 Q90 123 88 108.5 Q86 94 86 82 Q86 66 89.5 51 Q93 36 101 24.5 Q109 13 123 6 Q137 -1 157 -1 Q180 -1 196 8 Q212 17 221.5 31 Q231 45 235.5 63.5 Q240 82 240 101 Q240 153 210.5 179.5 Q181 206 132 206 Q112 206 94 203 Q94 205 93.5 205.5 Q93 206 93 208 Q132 212 157 222 Q182 232 195.5 246 Q209 260 214 276.5 Q219 293 219 310 Q219 344 198 364.5 Q177 385 148 385 Q137 385 124 382.5 Q111 380 100 375 Q110 364 113.5 352 Q117 340 117 329 Q117 316 106.5 301.5 Q96 287 74 287 Q58 287 48.5 296.5 Q39 306 39 319 Q39 328 45.5 340.5 Q52 353 66.5 364.5 Q81 376 105 383.5 Q129 391 165 391 Q206 391 233 382.5 Q260 374 275.5 361 Q291 348 297 333.5 Q303 319 303 306 Q303 277 274.5 250 Q246 223 183 212 Q211 209 236.5 201 Q262 193 281 180.5 Q300 168 311.5 149.5 Q323 131 323 107 Q323 81 310.5 60.5 Q298 40 276 25 Q254 10 224.5 2 Q195 -6 162 -6 Z " />
<glyph glyph-name="four.denominator" unicode="&#xe2f8;" horiz-adv-x="360" d="M283 49 Q283 30 293 22 Q303 14 315.5 11 Q328 8 338 7.5 Q348 7 348 3 L348 0 L138 0 L138 3 Q138 6 148.5 7 Q159 8 171.5 11.5 Q184 15 194.5 24 Q205 33 205 52 L205 108 L8 108 Q6 108 6 112 Q60 181 107.5 249 Q155 317 190 383 L285 383 Q252 335 215.5 294 Q179 253 144 219.5 Q109 186 76 159.5 Q43 133 16 114 L205 114 L205 204 Q230 209 247 220 Q264 231 279 248 L283 248 L283 114 L342 114 L342 108 L283 108 L283 49 L283 49 Z " />
<glyph glyph-name="five.denominator" unicode="&#xe2f9;" horiz-adv-x="360" d="M155 -4 Q94 -4 55.5 19 Q17 42 17 78 Q17 101 36 117.5 Q55 134 88 139 L91 135 Q86 124 84 110 Q82 96 82 84 Q82 69 85.5 54 Q89 39 97 27 Q105 15 119 7.5 Q133 0 153 0 Q176 0 192 10 Q208 20 217.5 36 Q227 52 231.5 72 Q236 92 236 112 Q236 164 209.5 192 Q183 220 138 220 Q116 220 98.5 215.5 Q81 211 67 205 Q65 205 64.5 205.5 Q64 206 62 206 L90 381 L240 381 Q266 381 283 385 Q300 389 313 411 Q318 419 320 419 L322 419 L296 317 Q280 320 255.5 322 Q231 324 202.5 325 Q174 326 144 326.5 Q114 327 87 327 L69 212 Q93 225 122.5 230.5 Q152 236 176 236 Q206 236 231.5 227.5 Q257 219 276.5 203.5 Q296 188 307 166.5 Q318 145 318 119 Q318 94 307.5 72 Q297 50 277 33 Q257 16 226 6 Q195 -4 155 -4 Z " />
<glyph glyph-name="six.denominator" unicode="&#xe2fa;" horiz-adv-x="360" d="M333 125 Q333 101 322.5 77 Q312 53 292.5 34.5 Q273 16 244 4.5 Q215 -7 178 -7 Q137 -7 108 4.5 Q79 16 60.5 35.5 Q42 55 33.5 80.5 Q25 106 25 134 Q25 181 45.5 222 Q66 263 101.5 296 Q137 329 183.5 353 Q230 377 282 390 Q283 389 283 388 Q283 386 284 386 Q189 358 148.5 293.5 Q108 229 108 135 Q108 106 111 81.5 Q114 57 122 38.5 Q130 20 144 9.5 Q158 -1 181 -1 Q203 -1 216.5 9.5 Q230 20 237.5 37.5 Q245 55 248 77 Q251 99 251 122 Q251 139 247 158 Q243 177 234 192.5 Q225 208 210 218.5 Q195 229 174 229 Q161 229 146 225 L145 230 Q162 237 177.5 238.5 Q193 240 207 240 Q262 240 297.5 208 Q333 176 333 125 Z " />
<glyph glyph-name="seven.denominator" unicode="&#xe2fb;" horiz-adv-x="360" d="M171 330 Q144 330 125 328.5 Q106 327 91.5 321 Q77 315 66 303 Q55 291 44 270 Q41 265 39.5 262.5 Q38 260 33 262 L71 393 Q96 390 129.5 387.5 Q163 385 199.5 384 Q236 383 272.5 382.5 Q309 382 340 382 L341 380 Q316 337 294.5 295 Q273 253 253 207.5 Q233 162 212.5 111 Q192 60 170 0 L72 0 Q126 91 187.5 174.5 Q249 258 306 330 L171 330 Z " />
<glyph glyph-name="eight.denominator" unicode="&#xe2fc;" horiz-adv-x="360" d="M220 220 Q240 240 245.5 261.5 Q251 283 251 300 Q251 338 231 360.5 Q211 383 177 383 Q149 383 129.5 368 Q110 353 110 321 Q110 304 120.5 289 Q131 274 147 261.5 Q163 249 182.5 238 Q202 227 220 220 Z M142 188 Q127 186 117 175 Q107 164 101 150.5 Q95 137 93 123 Q91 109 91 100 Q91 82 95.5 64 Q100 46 111 31.5 Q122 17 140 8.5 Q158 0 185 0 Q226 0 244.5 20.5 Q263 41 263 67 Q263 88 251.5 105.5 Q240 123 222 138 Q204 153 182.5 165.5 Q161 178 142 188 Z M29 92 Q29 126 54.5 154.5 Q80 183 129 196 Q97 215 73.5 236.5 Q50 258 50 289 Q50 335 86.5 362 Q123 389 182 389 Q208 389 231.5 383 Q255 377 273 366 Q291 355 301.5 337.5 Q312 320 312 298 Q312 272 292 247.5 Q272 223 232 213 Q251 202 269 191 Q287 180 301.5 166.5 Q316 153 324.5 137 Q333 121 333 101 Q333 77 321.5 57 Q310 37 289.5 23 Q269 9 240.5 1.5 Q212 -6 178 -6 Q148 -6 121 0 Q94 6 73.5 18 Q53 30 41 48.5 Q29 67 29 92 Z " />
<glyph glyph-name="nine.denominator" unicode="&#xe2fd;" horiz-adv-x="360" d="M24 260 Q24 284 34.5 307.5 Q45 331 64.5 349.5 Q84 368 113 379.5 Q142 391 180 391 Q220 391 249 379.5 Q278 368 297 348.5 Q316 329 324.5 303.5 Q333 278 333 250 Q333 201 312 160 Q291 119 256 86.5 Q221 54 174 30.5 Q127 7 75 -6 L73 -1 Q168 27 208.5 92 Q249 157 249 249 Q249 279 246 304 Q243 329 235 347 Q227 365 212.5 375.5 Q198 386 176 386 Q155 386 141.5 375 Q128 364 120.5 346.5 Q113 329 110 307 Q107 285 107 263 Q107 245 111 226.5 Q115 208 124 193 Q133 178 147.5 168 Q162 158 184 158 Q196 158 211 162 L212 158 Q195 150 180 148 Q165 146 150 146 Q95 146 59.5 177.5 Q24 209 24 260 Z " />
<glyph glyph-name="twosuperior" unicode="&#xb2;" horiz-adv-x="360" d="M7 390 Q23 414 45.5 435 Q68 456 92 476.5 Q116 497 139.5 518.5 Q163 540 181.5 564 Q200 588 211.5 617 Q223 646 223 681 Q223 718 203.5 745.5 Q184 773 143 773 Q126 773 110.5 769 Q95 765 78 755 Q89 747 95 735.5 Q101 724 101 712 Q101 695 91 682 Q81 669 62 669 Q44 669 37 678.5 Q30 688 30 699 Q30 709 37 723 Q44 737 60 750 Q76 763 100.5 772 Q125 781 161 781 Q200 781 227.5 772.5 Q255 764 272.5 750 Q290 736 297.5 718.5 Q305 701 305 683 Q305 657 292 633.5 Q279 610 257.5 589 Q236 568 209.5 548.5 Q183 529 156 511 Q129 493 104.5 476 Q80 459 63 443 L196 443 Q223 443 242.5 444.5 Q262 446 277.5 453 Q293 460 306.5 474.5 Q320 489 335 515 Q337 517 338 519 Q339 521 342 521 L343 521 L307 390 L7 390 Z " />
<glyph glyph-name="threesuperior" unicode="&#xb3;" horiz-adv-x="360" d="M162 384 Q99 384 60 407.5 Q21 431 21 467 Q21 490 41 506.5 Q61 523 92 528 L95 524 Q90 513 88 498.5 Q86 484 86 472 Q86 456 89.5 441 Q93 426 101 414.5 Q109 403 123 396 Q137 389 157 389 Q180 389 196 398 Q212 407 221.5 421 Q231 435 235.5 453.5 Q240 472 240 491 Q240 543 210.5 569.5 Q181 596 132 596 Q112 596 94 593 Q94 595 93.5 595.5 Q93 596 93 598 Q132 602 157 612 Q182 622 195.5 636 Q209 650 214 666.5 Q219 683 219 700 Q219 734 198 754.5 Q177 775 148 775 Q137 775 124 772.5 Q111 770 100 765 Q110 754 113.5 742 Q117 730 117 719 Q117 706 106.5 691.5 Q96 677 74 677 Q58 677 48.5 686.5 Q39 696 39 709 Q39 718 45.5 730.5 Q52 743 66.5 754.5 Q81 766 105 773.5 Q129 781 165 781 Q206 781 233 772.5 Q260 764 275.5 751 Q291 738 297 723.5 Q303 709 303 696 Q303 667 274.5 640 Q246 613 183 602 Q211 599 236.5 591 Q262 583 281 570.5 Q300 558 311.5 539.5 Q323 521 323 497 Q323 471 310.5 450.5 Q298 430 276 415 Q254 400 224.5 392 Q195 384 162 384 Z " />
<glyph glyph-name="onesuperior" unicode="&#xb9;" horiz-adv-x="360" d="M144 742 Q127 736 108 731 Q89 726 69 723 L68 727 Q107 735 145.5 748 Q184 761 218 784 L221 784 L221 439 Q221 420 231 412 Q241 404 252.5 401 Q264 398 274 397.5 Q284 397 284 393 L284 390 L75 390 L75 393 Q75 396 86 397 Q97 398 109.5 401.5 Q122 405 133 414 Q144 423 144 442 L144 742 L144 742 Z " />
<glyph glyph-name="&amp;#x2044;" unicode="&#x2044;" horiz-adv-x="140" d="M-110 -39 L-118 -39 L237 720 L244 720 L-110 -39 Z " />
<glyph glyph-name="&amp;#x2215;" unicode="&#x2215;" horiz-adv-x="140" d="M-110 -39 L-118 -39 L237 720 L244 720 L-110 -39 Z " />
<glyph glyph-name="onequarter" unicode="&#xbc;" horiz-adv-x="784" d="M196 -39 L188 -39 L543 720 L550 720 L196 -39 Z M135 652 Q118 646 99 641 Q80 636 60 633 L59 637 Q98 645 136.5 658 Q175 671 209 694 L212 694 L212 349 Q212 330 222 322 Q232 314 243.5 311 Q255 308 265 307.5 Q275 307 275 303 L275 300 L66 300 L66 303 Q66 306 77 307 Q88 308 100.5 311.5 Q113 315 124 324 Q135 333 135 352 L135 652 Z M658 49 Q658 30 668 22 Q678 14 690.5 11 Q703 8 713 7.5 Q723 7 723 3 L723 0 L513 0 L513 3 Q513 6 523.5 7 Q534 8 546.5 11.5 Q559 15 569.5 24 Q580 33 580 52 L580 108 L383 108 Q381 108 381 112 Q435 181 482.5 249 Q530 317 565 383 L660 383 Q627 335 590.5 294 Q554 253 519 219.5 Q484 186 451 159.5 Q418 133 391 114 L580 114 L580 204 Q605 209 622 220 Q639 231 654 248 L658 248 L658 114 L717 114 L717 108 L658 108 L658 49 Z " />
<glyph glyph-name="onehalf" unicode="&#xbd;" horiz-adv-x="784" d="M395 0 Q411 24 433.5 45 Q456 66 480 86.5 Q504 107 527.5 128.5 Q551 150 569.5 174 Q588 198 599.5 227 Q611 256 611 291 Q611 328 591.5 355.5 Q572 383 531 383 Q514 383 498.5 379 Q483 375 466 365 Q477 357 483 345.5 Q489 334 489 322 Q489 305 479 292 Q469 279 450 279 Q432 279 425 288.5 Q418 298 418 309 Q418 319 425 333 Q432 347 448 360 Q464 373 488.5 382 Q513 391 549 391 Q588 391 615.5 382.5 Q643 374 660.5 360 Q678 346 685.5 328.5 Q693 311 693 293 Q693 267 680 243.5 Q667 220 645.5 199 Q624 178 597.5 158.5 Q571 139 544 121 Q517 103 492.5 86 Q468 69 451 53 L584 53 Q611 53 630.5 54.5 Q650 56 665.5 63 Q681 70 694.5 84.5 Q708 99 723 125 Q725 127 726 129 Q727 131 730 131 L731 131 L695 0 L395 0 Z M129 652 Q112 646 93 641 Q74 636 54 633 L53 637 Q92 645 130.5 658 Q169 671 203 694 L206 694 L206 349 Q206 330 216 322 Q226 314 237.5 311 Q249 308 259 307.5 Q269 307 269 303 L269 300 L60 300 L60 303 Q60 306 71 307 Q82 308 94.5 311.5 Q107 315 118 324 Q129 333 129 352 L129 652 Z M168 -39 L160 -39 L515 720 L522 720 L168 -39 Z " />
<glyph glyph-name="threequarters" unicode="&#xbe;" horiz-adv-x="784" d="M236 -39 L228 -39 L583 720 L590 720 L236 -39 Z M173 294 Q110 294 71 317.5 Q32 341 32 377 Q32 400 52 416.5 Q72 433 103 438 L106 434 Q101 423 99 408.5 Q97 394 97 382 Q97 366 100.5 351 Q104 336 112 324.5 Q120 313 134 306 Q148 299 168 299 Q191 299 207 308 Q223 317 232.5 331 Q242 345 246.5 363.5 Q251 382 251 401 Q251 453 221.5 479.5 Q192 506 143 506 Q123 506 105 503 Q105 505 104.5 505.5 Q104 506 104 508 Q143 512 168 522 Q193 532 206.5 546 Q220 560 225 576.5 Q230 593 230 610 Q230 644 209 664.5 Q188 685 159 685 Q148 685 135 682.5 Q122 680 111 675 Q121 664 124.5 652 Q128 640 128 629 Q128 616 117.5 601.5 Q107 587 85 587 Q69 587 59.5 596.5 Q50 606 50 619 Q50 628 56.5 640.5 Q63 653 77.5 664.5 Q92 676 116 683.5 Q140 691 176 691 Q217 691 244 682.5 Q271 674 286.5 661 Q302 648 308 633.5 Q314 619 314 606 Q314 577 285.5 550 Q257 523 194 512 Q222 509 247.5 501 Q273 493 292 480.5 Q311 468 322.5 449.5 Q334 431 334 407 Q334 381 321.5 360.5 Q309 340 287 325 Q265 310 235.5 302 Q206 294 173 294 Z M682 49 Q682 30 692 22 Q702 14 714.5 11 Q727 8 737 7.5 Q747 7 747 3 L747 0 L537 0 L537 3 Q537 6 547.5 7 Q558 8 570.5 11.5 Q583 15 593.5 24 Q604 33 604 52 L604 108 L407 108 Q405 108 405 112 Q459 181 506.5 249 Q554 317 589 383 L684 383 Q651 335 614.5 294 Q578 253 543 219.5 Q508 186 475 159.5 Q442 133 415 114 L604 114 L604 204 Q629 209 646 220 Q663 231 678 248 L682 248 L682 114 L741 114 L741 108 L682 108 L682 49 Z " />
<glyph glyph-name="percent" unicode="&#x25;" horiz-adv-x="784" d="M213 -39 L205 -39 L560 720 L567 720 L213 -39 Z M41 491 Q41 525 49.5 560.5 Q58 596 76.5 625 Q95 654 125 672 Q155 690 198 690 Q242 690 272 672 Q302 654 320.5 625.5 Q339 597 347 562 Q355 527 355 492 Q355 460 346.5 424.5 Q338 389 319 359.5 Q300 330 270.5 311 Q241 292 198 292 Q154 292 124.5 309.5 Q95 327 76 355.5 Q57 384 49 419.5 Q41 455 41 491 Z M122 491 Q122 397 139.5 347 Q157 297 199 297 Q240 297 256.5 350 Q273 403 273 491 Q273 584 257 635 Q241 686 198 686 Q177 686 162.5 671 Q148 656 139 629.5 Q130 603 126 567.5 Q122 532 122 491 Z M428 191 Q428 225 436.5 260.5 Q445 296 463.5 325 Q482 354 512 372 Q542 390 585 390 Q629 390 659 372 Q689 354 707.5 325.5 Q726 297 734 262 Q742 227 742 192 Q742 160 733.5 124.5 Q725 89 706 59.5 Q687 30 657.5 11 Q628 -8 585 -8 Q541 -8 511.5 9.5 Q482 27 463 55.5 Q444 84 436 119.5 Q428 155 428 191 Z M509 191 Q509 97 526.5 47 Q544 -3 586 -3 Q627 -3 643.5 50 Q660 103 660 191 Q660 284 644 335 Q628 386 585 386 Q564 386 549.5 371 Q535 356 526 329.5 Q517 303 513 267.5 Q509 232 509 191 Z " />
<glyph glyph-name="perthousand" unicode="&#x2030;" horiz-adv-x="1156" d="M218 -39 L210 -39 L565 720 L572 720 L218 -39 Z M41 491 Q41 525 49.5 560.5 Q58 596 76.5 625 Q95 654 125 672 Q155 690 198 690 Q242 690 272 672 Q302 654 320.5 625.5 Q339 597 347 562 Q355 527 355 492 Q355 460 346.5 424.5 Q338 389 319 359.5 Q300 330 270.5 311 Q241 292 198 292 Q154 292 124.5 309.5 Q95 327 76 355.5 Q57 384 49 419.5 Q41 455 41 491 Z M122 491 Q122 397 139.5 347 Q157 297 199 297 Q240 297 256.5 350 Q273 403 273 491 Q273 584 257 635 Q241 686 198 686 Q177 686 162.5 671 Q148 656 139 629.5 Q130 603 126 567.5 Q122 532 122 491 Z M434 191 Q434 225 442.5 260.5 Q451 296 469.5 325 Q488 354 518 372 Q548 390 591 390 Q635 390 665 372 Q695 354 713.5 325.5 Q732 297 740 262 Q748 227 748 192 Q748 160 739.5 124.5 Q731 89 712 59.5 Q693 30 663.5 11 Q634 -8 591 -8 Q547 -8 517.5 9.5 Q488 27 469 55.5 Q450 84 442 119.5 Q434 155 434 191 Z M515 191 Q515 97 532.5 47 Q550 -3 592 -3 Q633 -3 649.5 50 Q666 103 666 191 Q666 284 650 335 Q634 386 591 386 Q570 386 555.5 371 Q541 356 532 329.5 Q523 303 519 267.5 Q515 232 515 191 Z M800 191 Q800 225 808.5 260.5 Q817 296 835.5 325 Q854 354 884 372 Q914 390 957 390 Q1001 390 1031 372 Q1061 354 1079.5 325.5 Q1098 297 1106 262 Q1114 227 1114 192 Q1114 160 1105.5 124.5 Q1097 89 1078 59.5 Q1059 30 1029.5 11 Q1000 -8 957 -8 Q913 -8 883.5 9.5 Q854 27 835 55.5 Q816 84 808 119.5 Q800 155 800 191 Z M881 191 Q881 97 898.5 47 Q916 -3 958 -3 Q999 -3 1015.5 50 Q1032 103 1032 191 Q1032 284 1016 335 Q1000 386 957 386 Q936 386 921.5 371 Q907 356 898 329.5 Q889 303 885 267.5 Q881 232 881 191 Z " />
<glyph glyph-name="Agrave" unicode="&#xc0;" horiz-adv-x="752" d="M512 53 Q512 67 507.5 82.5 Q503 98 498 112 L458 222 L200 222 L168 132 Q162 115 158.5 99.5 Q155 84 155 70 Q155 42 172.5 29.5 Q190 17 211 12.5 Q232 8 248.5 7 Q265 6 263 0 L5 0 Q3 7 19.5 7 Q36 7 60.5 14.5 Q85 22 111 43 Q137 64 155 112 L322 570 Q329 590 329 606 Q329 633 311.5 645 Q294 657 273.5 661.5 Q253 666 235.5 666.5 Q218 667 218 672 L218 674 L424 674 L640 77 Q651 46 668.5 31.5 Q686 17 702.5 12 Q719 7 731 6.5 Q743 6 743 2 L743 0 L432 0 L432 2 Q432 5 444.5 6 Q457 7 472 10.5 Q487 14 499.5 23.5 Q512 33 512 53 Z M203 227 L456 227 L330 579 L203 227 Z M456 743 Q456 742 455.5 742 Q455 742 455 741 L455 740 Q398 743 356.5 755.5 Q315 768 288 784 Q261 800 248.5 815.5 Q236 831 236 841 Q236 855 246.5 868.5 Q257 882 277 882 Q296 882 309 867.5 Q322 853 339 831.5 Q356 810 382.5 786 Q409 762 456 743 Z " />
<glyph glyph-name="Aacute" unicode="&#xc1;" horiz-adv-x="752" d="M512 53 Q512 67 507.5 82.5 Q503 98 498 112 L458 222 L200 222 L168 132 Q162 115 158.5 99.5 Q155 84 155 70 Q155 42 172.5 29.5 Q190 17 211 12.5 Q232 8 248.5 7 Q265 6 263 0 L5 0 Q3 7 19.5 7 Q36 7 60.5 14.5 Q85 22 111 43 Q137 64 155 112 L322 570 Q329 590 329 606 Q329 633 311.5 645 Q294 657 273.5 661.5 Q253 666 235.5 666.5 Q218 667 218 672 L218 674 L424 674 L640 77 Q651 46 668.5 31.5 Q686 17 702.5 12 Q719 7 731 6.5 Q743 6 743 2 L743 0 L432 0 L432 2 Q432 5 444.5 6 Q457 7 472 10.5 Q487 14 499.5 23.5 Q512 33 512 53 Z M203 227 L456 227 L330 579 L203 227 Z M279 737 Q278 737 278 738 L278 740 Q324 759 351 783 Q378 807 395 828.5 Q412 850 425 864.5 Q438 879 457 879 Q477 879 487.5 865.5 Q498 852 498 838 Q498 828 485.5 812.5 Q473 797 446 781 Q419 765 377.5 752.5 Q336 740 279 737 Z " />
<glyph glyph-name="Acircumflex" unicode="&#xc2;" horiz-adv-x="752" d="M512 53 Q512 67 507.5 82.5 Q503 98 498 112 L458 222 L200 222 L168 132 Q162 115 158.5 99.5 Q155 84 155 70 Q155 42 172.5 29.5 Q190 17 211 12.5 Q232 8 248.5 7 Q265 6 263 0 L5 0 Q3 7 19.5 7 Q36 7 60.5 14.5 Q85 22 111 43 Q137 64 155 112 L322 570 Q329 590 329 606 Q329 633 311.5 645 Q294 657 273.5 661.5 Q253 666 235.5 666.5 Q218 667 218 672 L218 674 L424 674 L640 77 Q651 46 668.5 31.5 Q686 17 702.5 12 Q719 7 731 6.5 Q743 6 743 2 L743 0 L432 0 L432 2 Q432 5 444.5 6 Q457 7 472 10.5 Q487 14 499.5 23.5 Q512 33 512 53 Z M203 227 L456 227 L330 579 L203 227 Z M370 802 L218 729 L215 732 L356 874 Q363 881 368 881 Q370 881 375 879 Q380 877 382 874 Q417 839 451.5 803 Q486 767 521 732 L518 729 L370 802 Z " />
<glyph glyph-name="Atilde" unicode="&#xc3;" horiz-adv-x="752" d="M512 53 Q512 67 507.5 82.5 Q503 98 498 112 L458 222 L200 222 L168 132 Q162 115 158.5 99.5 Q155 84 155 70 Q155 42 172.5 29.5 Q190 17 211 12.5 Q232 8 248.5 7 Q265 6 263 0 L5 0 Q3 7 19.5 7 Q36 7 60.5 14.5 Q85 22 111 43 Q137 64 155 112 L322 570 Q329 590 329 606 Q329 633 311.5 645 Q294 657 273.5 661.5 Q253 666 235.5 666.5 Q218 667 218 672 L218 674 L424 674 L640 77 Q651 46 668.5 31.5 Q686 17 702.5 12 Q719 7 731 6.5 Q743 6 743 2 L743 0 L432 0 L432 2 Q432 5 444.5 6 Q457 7 472 10.5 Q487 14 499.5 23.5 Q512 33 512 53 Z M203 227 L456 227 L330 579 L203 227 Z M520 852 Q515 808 490.5 776.5 Q466 745 424 745 Q407 745 387 750 Q367 755 345.5 760.5 Q324 766 303.5 771 Q283 776 267 776 Q248 776 232.5 769 Q217 762 206 733 L202 734 Q205 748 211.5 766 Q218 784 229.5 800 Q241 816 257.5 827 Q274 838 297 838 Q312 838 332 832.5 Q352 827 374 821 Q396 815 417.5 809.5 Q439 804 457 804 Q482 804 495 814.5 Q508 825 517 853 L520 852 Z " />
<glyph glyph-name="Adieresis" unicode="&#xc4;" horiz-adv-x="752" d="M512 53 Q512 67 507.5 82.5 Q503 98 498 112 L458 222 L200 222 L168 132 Q162 115 158.5 99.5 Q155 84 155 70 Q155 42 172.5 29.5 Q190 17 211 12.5 Q232 8 248.5 7 Q265 6 263 0 L5 0 Q3 7 19.5 7 Q36 7 60.5 14.5 Q85 22 111 43 Q137 64 155 112 L322 570 Q329 590 329 606 Q329 633 311.5 645 Q294 657 273.5 661.5 Q253 666 235.5 666.5 Q218 667 218 672 L218 674 L424 674 L640 77 Q651 46 668.5 31.5 Q686 17 702.5 12 Q719 7 731 6.5 Q743 6 743 2 L743 0 L432 0 L432 2 Q432 5 444.5 6 Q457 7 472 10.5 Q487 14 499.5 23.5 Q512 33 512 53 Z M203 227 L456 227 L330 579 L203 227 Z M272 849 Q295 849 311.5 833 Q328 817 328 794 Q328 771 311.5 754.5 Q295 738 272 738 Q249 738 232.5 754.5 Q216 771 216 794 Q216 817 232.5 833 Q249 849 272 849 Z M457 849 Q480 849 496 833 Q512 817 512 794 Q512 771 496 754.5 Q480 738 457 738 Q433 738 417 754.5 Q401 771 401 794 Q401 817 417 833 Q433 849 457 849 Z " />
<glyph glyph-name="Aring" unicode="&#xc5;" horiz-adv-x="752" d="M512 53 Q512 67 507.5 82.5 Q503 98 498 112 L458 222 L200 222 L168 132 Q162 115 158.5 99.5 Q155 84 155 70 Q155 42 172.5 29.5 Q190 17 211 12.5 Q232 8 248.5 7 Q265 6 263 0 L5 0 Q3 7 19.5 7 Q36 7 60.5 14.5 Q85 22 111 43 Q137 64 155 112 L322 570 Q329 590 329 606 Q329 633 311.5 645 Q294 657 273.5 661.5 Q253 666 235.5 666.5 Q218 667 218 672 L218 674 L424 674 L640 77 Q651 46 668.5 31.5 Q686 17 702.5 12 Q719 7 731 6.5 Q743 6 743 2 L743 0 L432 0 L432 2 Q432 5 444.5 6 Q457 7 472 10.5 Q487 14 499.5 23.5 Q512 33 512 53 Z M203 227 L456 227 L330 579 L203 227 Z M364 697 Q325 697 298 722.5 Q271 748 271 786 Q271 805 278 821.5 Q285 838 298 850 Q311 862 327.5 869 Q344 876 364 876 Q383 876 399.5 869 Q416 862 428 850 Q440 838 447 821.5 Q454 805 454 786 Q454 748 428 722.5 Q402 697 364 697 Z M364 852 Q334 852 315.5 832 Q297 812 297 786 Q297 760 314.5 740 Q332 720 364 720 Q394 720 411.5 740 Q429 760 429 786 Q429 810 411 831 Q393 852 364 852 Z " />
<glyph glyph-name="AE" unicode="&#xc6;" horiz-adv-x="1075" d="M408 0 Q406 4 414.5 5 Q423 6 436 7.5 Q449 9 465 13.5 Q481 18 495 30 Q509 42 518 62.5 Q527 83 527 118 L527 226 L257 226 L174 103 Q162 86 156 70.5 Q150 55 150 47 Q150 29 163 20.5 Q176 12 191.5 9 Q207 6 219 5 Q231 4 230 0 L3 0 Q2 4 8 4.5 Q14 5 25.5 6.5 Q37 8 53 12 Q69 16 87.5 26.5 Q106 37 126.5 55.5 Q147 74 168 105 Q256 234 343 361.5 Q430 489 518 618 Q508 642 489 651 Q470 660 451.5 663 Q433 666 419.5 667 Q406 668 408 674 L790 674 Q848 674 897.5 683.5 Q947 693 982 716 Q990 651 996.5 587.5 Q1003 524 1010 459 L1008 459 Q1005 459 1003.5 462.5 Q1002 466 1000 472 Q983 520 963 557 Q943 594 915.5 619 Q888 644 852 656.5 Q816 669 767 669 L656 669 L656 356 L737 356 Q768 356 790.5 363.5 Q813 371 827.5 384.5 Q842 398 850.5 416 Q859 434 862 455 Q866 478 867 488 Q868 498 873 497 L873 203 Q868 201 866.5 211.5 Q865 222 862.5 238.5 Q860 255 854.5 274.5 Q849 294 836 311 Q823 328 800.5 339.5 Q778 351 742 351 L656 351 L656 98 Q656 53 677.5 28.5 Q699 4 749 4 L779 4 Q871 4 940 58 Q1009 112 1055 241 Q1059 254 1066 254 L1011 -30 Q979 -16 930.5 -8 Q882 0 810 0 L408 0 Z M527 577 Q527 588 525 596.5 Q523 605 521 613 L260 231 L527 231 L527 577 Z " />
<glyph glyph-name="Ccedilla" unicode="&#xc7;" horiz-adv-x="686" d="M388 683 Q437 683 475.5 675 Q514 667 544 667 Q567 667 585.5 676 Q604 685 618 711 L621 711 L635 450 L633 450 Q629 450 627 459.5 Q625 469 618 490 Q606 526 588.5 560 Q571 594 545 620 Q519 646 483 662 Q447 678 398 678 Q341 678 301 648.5 Q261 619 236 569.5 Q211 520 199.5 456 Q188 392 188 323 Q188 252 200.5 191.5 Q213 131 239.5 87.5 Q266 44 306 19.5 Q346 -5 400 -5 Q455 -5 494 10.5 Q533 26 561.5 54.5 Q590 83 609 124.5 Q628 166 642 219 Q649 245 652 259 Q655 273 660 273 L662 273 L645 -25 L642 -25 Q628 -1 612 8 Q596 17 576 17 Q559 17 539.5 12.5 Q520 8 496.5 3 Q473 -2 445.5 -6.5 Q418 -11 386 -11 L365 -69 Q398 -69 428 -73.5 Q458 -78 480.5 -88.5 Q503 -99 516 -115 Q529 -131 529 -155 Q529 -173 518.5 -190.5 Q508 -208 487 -221.5 Q466 -235 434 -243.5 Q402 -252 359 -252 Q348 -252 337 -252 Q326 -252 313 -250 L313 -245 Q340 -245 364 -240.5 Q388 -236 406.5 -226 Q425 -216 435.5 -200.5 Q446 -185 446 -164 Q446 -139 423.5 -118 Q401 -97 350 -96 L380 -11 Q298 -10 235 15.5 Q172 41 129.5 85.5 Q87 130 65.5 191.5 Q44 253 44 325 Q44 398 67 463 Q90 528 134.5 577 Q179 626 243 654.5 Q307 683 388 683 Z " />
<glyph glyph-name="Egrave" unicode="&#xc8;" horiz-adv-x="699" d="M413 674 Q471 674 520.5 683.5 Q570 693 605 716 Q613 651 619.5 587.5 Q626 524 633 459 L631 459 Q628 459 626.5 462.5 Q625 466 623 472 Q606 520 586 557 Q566 594 538.5 619 Q511 644 475 656.5 Q439 669 390 669 L279 669 L279 356 L360 356 Q391 356 413.5 363.5 Q436 371 450.5 384.5 Q465 398 473.5 416 Q482 434 485 455 Q489 478 490 488 Q491 498 496 497 L496 203 Q491 201 489.5 211.5 Q488 222 485.5 238.5 Q483 255 477.5 274.5 Q472 294 459 311 Q446 328 423.5 339.5 Q401 351 365 351 L279 351 L279 98 Q279 53 300.5 28.5 Q322 4 372 4 L402 4 Q494 4 563 58 Q632 112 678 241 Q682 254 689 254 L634 -30 Q602 -16 553.5 -8 Q505 0 433 0 L33 0 L33 1 Q33 5 41.5 5.5 Q50 6 63 8 Q76 10 91.5 14.5 Q107 19 120 30.5 Q133 42 141.5 63 Q150 84 150 118 L150 577 Q150 617 132 635.5 Q114 654 92 660.5 Q70 667 52 667 Q34 667 34 672 L34 674 L413 674 Z M437 743 Q437 742 436.5 742 Q436 742 436 741 L436 740 Q379 743 337.5 755.5 Q296 768 269 784 Q242 800 229.5 815.5 Q217 831 217 841 Q217 855 227.5 868.5 Q238 882 258 882 Q277 882 290 867.5 Q303 853 320 831.5 Q337 810 363.5 786 Q390 762 437 743 Z " />
<glyph glyph-name="Eacute" unicode="&#xc9;" horiz-adv-x="699" d="M413 674 Q471 674 520.5 683.5 Q570 693 605 716 Q613 651 619.5 587.5 Q626 524 633 459 L631 459 Q628 459 626.5 462.5 Q625 466 623 472 Q606 520 586 557 Q566 594 538.5 619 Q511 644 475 656.5 Q439 669 390 669 L279 669 L279 356 L360 356 Q391 356 413.5 363.5 Q436 371 450.5 384.5 Q465 398 473.5 416 Q482 434 485 455 Q489 478 490 488 Q491 498 496 497 L496 203 Q491 201 489.5 211.5 Q488 222 485.5 238.5 Q483 255 477.5 274.5 Q472 294 459 311 Q446 328 423.5 339.5 Q401 351 365 351 L279 351 L279 98 Q279 53 300.5 28.5 Q322 4 372 4 L402 4 Q494 4 563 58 Q632 112 678 241 Q682 254 689 254 L634 -30 Q602 -16 553.5 -8 Q505 0 433 0 L33 0 L33 1 Q33 5 41.5 5.5 Q50 6 63 8 Q76 10 91.5 14.5 Q107 19 120 30.5 Q133 42 141.5 63 Q150 84 150 118 L150 577 Q150 617 132 635.5 Q114 654 92 660.5 Q70 667 52 667 Q34 667 34 672 L34 674 L413 674 Z M260 737 Q259 737 259 738 L259 740 Q305 759 332 783 Q359 807 376 828.5 Q393 850 406 864.5 Q419 879 438 879 Q458 879 468.5 865.5 Q479 852 479 838 Q479 828 466.5 812.5 Q454 797 427 781 Q400 765 358.5 752.5 Q317 740 260 737 Z " />
<glyph glyph-name="Ecircumflex" unicode="&#xca;" horiz-adv-x="699" d="M413 674 Q471 674 520.5 683.5 Q570 693 605 716 Q613 651 619.5 587.5 Q626 524 633 459 L631 459 Q628 459 626.5 462.5 Q625 466 623 472 Q606 520 586 557 Q566 594 538.5 619 Q511 644 475 656.5 Q439 669 390 669 L279 669 L279 356 L360 356 Q391 356 413.5 363.5 Q436 371 450.5 384.5 Q465 398 473.5 416 Q482 434 485 455 Q489 478 490 488 Q491 498 496 497 L496 203 Q491 201 489.5 211.5 Q488 222 485.5 238.5 Q483 255 477.5 274.5 Q472 294 459 311 Q446 328 423.5 339.5 Q401 351 365 351 L279 351 L279 98 Q279 53 300.5 28.5 Q322 4 372 4 L402 4 Q494 4 563 58 Q632 112 678 241 Q682 254 689 254 L634 -30 Q602 -16 553.5 -8 Q505 0 433 0 L33 0 L33 1 Q33 5 41.5 5.5 Q50 6 63 8 Q76 10 91.5 14.5 Q107 19 120 30.5 Q133 42 141.5 63 Q150 84 150 118 L150 577 Q150 617 132 635.5 Q114 654 92 660.5 Q70 667 52 667 Q34 667 34 672 L34 674 L413 674 Z M348 812 L196 739 L193 742 L334 884 Q341 891 346 891 Q348 891 353 889 Q358 887 360 884 Q395 849 429.5 813 Q464 777 499 742 L496 739 L348 812 Z " />
<glyph glyph-name="Edieresis" unicode="&#xcb;" horiz-adv-x="699" d="M413 674 Q471 674 520.5 683.5 Q570 693 605 716 Q613 651 619.5 587.5 Q626 524 633 459 L631 459 Q628 459 626.5 462.5 Q625 466 623 472 Q606 520 586 557 Q566 594 538.5 619 Q511 644 475 656.5 Q439 669 390 669 L279 669 L279 356 L360 356 Q391 356 413.5 363.5 Q436 371 450.5 384.5 Q465 398 473.5 416 Q482 434 485 455 Q489 478 490 488 Q491 498 496 497 L496 203 Q491 201 489.5 211.5 Q488 222 485.5 238.5 Q483 255 477.5 274.5 Q472 294 459 311 Q446 328 423.5 339.5 Q401 351 365 351 L279 351 L279 98 Q279 53 300.5 28.5 Q322 4 372 4 L402 4 Q494 4 563 58 Q632 112 678 241 Q682 254 689 254 L634 -30 Q602 -16 553.5 -8 Q505 0 433 0 L33 0 L33 1 Q33 5 41.5 5.5 Q50 6 63 8 Q76 10 91.5 14.5 Q107 19 120 30.5 Q133 42 141.5 63 Q150 84 150 118 L150 577 Q150 617 132 635.5 Q114 654 92 660.5 Q70 667 52 667 Q34 667 34 672 L34 674 L413 674 Z M254 849 Q277 849 293.5 833 Q310 817 310 794 Q310 771 293.5 754.5 Q277 738 254 738 Q231 738 214.5 754.5 Q198 771 198 794 Q198 817 214.5 833 Q231 849 254 849 Z M439 849 Q462 849 478 833 Q494 817 494 794 Q494 771 478 754.5 Q462 738 439 738 Q415 738 399 754.5 Q383 771 383 794 Q383 817 399 833 Q415 849 439 849 Z " />
<glyph glyph-name="Igrave" unicode="&#xcc;" horiz-adv-x="439" d="M284 118 Q284 84 292.5 63 Q301 42 314.5 30.5 Q328 19 343 14.5 Q358 10 371.5 8 Q385 6 393.5 5.5 Q402 5 402 1 L402 0 L37 0 L37 1 Q37 5 45.5 5.5 Q54 6 67.5 8 Q81 10 96 14.5 Q111 19 124.5 30.5 Q138 42 146.5 63 Q155 84 155 118 L155 577 Q155 617 136.5 635.5 Q118 654 96 660.5 Q74 667 55.5 667 Q37 667 37 672 L37 674 L402 674 L402 672 Q402 667 383.5 666.5 Q365 666 343 659.5 Q321 653 302.5 635 Q284 617 284 577 L284 118 Z M313 743 Q313 742 312.5 742 Q312 742 312 741 L312 740 Q255 743 213.5 755.5 Q172 768 145 784 Q118 800 105.5 815.5 Q93 831 93 841 Q93 855 103.5 868.5 Q114 882 134 882 Q153 882 166 867.5 Q179 853 196 831.5 Q213 810 239.5 786 Q266 762 313 743 Z " />
<glyph glyph-name="Iacute" unicode="&#xcd;" horiz-adv-x="439" d="M284 118 Q284 84 292.5 63 Q301 42 314.5 30.5 Q328 19 343 14.5 Q358 10 371.5 8 Q385 6 393.5 5.5 Q402 5 402 1 L402 0 L37 0 L37 1 Q37 5 45.5 5.5 Q54 6 67.5 8 Q81 10 96 14.5 Q111 19 124.5 30.5 Q138 42 146.5 63 Q155 84 155 118 L155 577 Q155 617 136.5 635.5 Q118 654 96 660.5 Q74 667 55.5 667 Q37 667 37 672 L37 674 L402 674 L402 672 Q402 667 383.5 666.5 Q365 666 343 659.5 Q321 653 302.5 635 Q284 617 284 577 L284 118 Z M137 737 Q136 737 136 738 L136 740 Q182 759 209 783 Q236 807 253 828.5 Q270 850 283 864.5 Q296 879 315 879 Q335 879 345.5 865.5 Q356 852 356 838 Q356 828 343.5 812.5 Q331 797 304 781 Q277 765 235.5 752.5 Q194 740 137 737 Z " />
<glyph glyph-name="Icircumflex" unicode="&#xce;" horiz-adv-x="439" d="M284 118 Q284 84 292.5 63 Q301 42 314.5 30.5 Q328 19 343 14.5 Q358 10 371.5 8 Q385 6 393.5 5.5 Q402 5 402 1 L402 0 L37 0 L37 1 Q37 5 45.5 5.5 Q54 6 67.5 8 Q81 10 96 14.5 Q111 19 124.5 30.5 Q138 42 146.5 63 Q155 84 155 118 L155 577 Q155 617 136.5 635.5 Q118 654 96 660.5 Q74 667 55.5 667 Q37 667 37 672 L37 674 L402 674 L402 672 Q402 667 383.5 666.5 Q365 666 343 659.5 Q321 653 302.5 635 Q284 617 284 577 L284 118 Z M222 812 L70 739 L67 742 L208 884 Q215 891 220 891 Q222 891 227 889 Q232 887 234 884 Q269 849 303.5 813 Q338 777 373 742 L370 739 L222 812 Z " />
<glyph glyph-name="Idieresis" unicode="&#xcf;" horiz-adv-x="439" d="M284 118 Q284 84 292.5 63 Q301 42 314.5 30.5 Q328 19 343 14.5 Q358 10 371.5 8 Q385 6 393.5 5.5 Q402 5 402 1 L402 0 L37 0 L37 1 Q37 5 45.5 5.5 Q54 6 67.5 8 Q81 10 96 14.5 Q111 19 124.5 30.5 Q138 42 146.5 63 Q155 84 155 118 L155 577 Q155 617 136.5 635.5 Q118 654 96 660.5 Q74 667 55.5 667 Q37 667 37 672 L37 674 L402 674 L402 672 Q402 667 383.5 666.5 Q365 666 343 659.5 Q321 653 302.5 635 Q284 617 284 577 L284 118 Z M129 849 Q152 849 168.5 833 Q185 817 185 794 Q185 771 168.5 754.5 Q152 738 129 738 Q106 738 89.5 754.5 Q73 771 73 794 Q73 817 89.5 833 Q106 849 129 849 Z M314 849 Q337 849 353 833 Q369 817 369 794 Q369 771 353 754.5 Q337 738 314 738 Q290 738 274 754.5 Q258 771 258 794 Q258 817 274 833 Q290 849 314 849 Z " />
<glyph glyph-name="Eth" unicode="&#xd0;" horiz-adv-x="808" d="M32 1 Q32 5 40.5 5.5 Q49 6 62 8 Q75 10 90.5 14.5 Q106 19 119 30.5 Q132 42 140.5 63 Q149 84 149 118 L149 350 L53 350 L53 355 L149 355 L149 577 Q149 617 131 635.5 Q113 654 91 660.5 Q69 667 51 667 Q33 667 33 672 L33 674 L352 674 Q437 674 511 653 Q585 632 640.5 590 Q696 548 728 484.5 Q760 421 760 337 Q760 307 753 270.5 Q746 234 729 196.5 Q712 159 683.5 123.5 Q655 88 612.5 60.5 Q570 33 511 16.5 Q452 0 375 0 L32 0 L32 1 Z M279 355 L445 355 L445 350 L279 350 L279 102 Q279 51 301.5 27.5 Q324 4 367 4 L382 4 Q434 4 477.5 21.5 Q521 39 552 78 Q583 117 600 178.5 Q617 240 617 329 Q617 408 603.5 471.5 Q590 535 558 578.5 Q526 622 472.5 645.5 Q419 669 339 669 L279 669 L279 355 Z " />
<glyph glyph-name="Ntilde" unicode="&#xd1;" horiz-adv-x="810" d="M269 674 Q364 553 458 434 Q552 315 648 195 L648 535 Q648 574 638 598.5 Q628 623 613.5 637 Q599 651 582 656.5 Q565 662 550.5 664.5 Q536 667 526 668 Q516 669 516 673 L516 674 L783 674 L783 673 Q783 669 773.5 668 Q764 667 749.5 664.5 Q735 662 718 656 Q701 650 686.5 636.5 Q672 623 662.5 599.5 Q653 576 653 538 L653 -17 L651 -17 L161 603 L161 136 Q161 98 170.5 74.5 Q180 51 194.5 37.5 Q209 24 226 18 Q243 12 257.5 9.5 Q272 7 281.5 6 Q291 5 291 1 L291 0 L24 0 L24 1 Q24 5 34 6 Q44 7 58.5 9.5 Q73 12 90 17.5 Q107 23 121.5 37 Q136 51 146 75.5 Q156 100 156 139 L156 581 Q156 620 138 637 Q120 654 99 660 Q78 666 60 666.5 Q42 667 42 672 L42 674 L269 674 Z M587 863 Q582 819 557.5 787.5 Q533 756 491 756 Q474 756 454 761 Q434 766 412.5 771.5 Q391 777 370.5 782 Q350 787 334 787 Q315 787 299.5 780 Q284 773 273 744 L269 745 Q272 759 278.5 777 Q285 795 296.5 811 Q308 827 324.5 838 Q341 849 364 849 Q379 849 399 843.5 Q419 838 441 832 Q463 826 484.5 820.5 Q506 815 524 815 Q549 815 562 825.5 Q575 836 584 864 L587 863 Z " />
<glyph glyph-name="Ograve" unicode="&#xd2;" horiz-adv-x="793" d="M48 335 Q48 405 72 468 Q96 531 141 579 Q186 627 250 655.5 Q314 684 394 684 Q478 684 543.5 655.5 Q609 627 654 579 Q699 531 722 468.5 Q745 406 745 338 Q745 269 721 205.5 Q697 142 651.5 94 Q606 46 541 17 Q476 -12 394 -12 Q308 -12 243.5 16 Q179 44 135.5 92 Q92 140 70 203 Q48 266 48 335 Z M192 337 Q192 271 200 209 Q208 147 230.5 99 Q253 51 293.5 22 Q334 -7 398 -7 Q459 -7 498.5 20 Q538 47 561 93.5 Q584 140 592.5 201 Q601 262 601 331 Q601 400 592 463 Q583 526 560 574 Q537 622 497 650.5 Q457 679 394 679 Q335 679 296.5 649.5 Q258 620 234.5 572 Q211 524 201.5 462.5 Q192 401 192 337 Z M478 746 Q478 745 477.5 745 Q477 745 477 744 L477 743 Q420 746 378.5 758.5 Q337 771 310 787 Q283 803 270.5 818.5 Q258 834 258 844 Q258 858 268.5 871.5 Q279 885 299 885 Q318 885 331 870.5 Q344 856 361 834.5 Q378 813 404.5 789 Q431 765 478 746 Z " />
</font>
</svg>
